<?xml version="1.0" standalone="no"?> <!DOCTYPE svg PUBLIC "-//W3C//DTD SVG 1.0//EN" "http://www.w3.org/TR/2001/REC-SVG-20010904/DTD/svg10.dtd" > <svg xmlns="http://www.w3.org/2000/svg" width="100%" height="100%">
<defs >
<font id="eurostileltstd-ex2" horiz-adv-x="1496" ><font-face
    font-family="Eurostile LT Std Ext Two"
    units-per-em="2048"
    panose-1="2 11 6 7 2 2 2 6 2 4"
    ascent="1536"
    descent="-512"
    alphabetic="0" />
<missing-glyph horiz-adv-x="1024" d="M0 0V1434H1024V0H0ZM512 809L860 1331H164L512 809ZM573 717L922 195V1239L573 717ZM164 102H860L512 625L164 102ZM102 1239V195L451 717L102 1239Z" />
<glyph unicode=" " glyph-name="space" horiz-adv-x="987" />
<glyph unicode="!" glyph-name="exclam" horiz-adv-x="987" d="M379 0V254H608V0H379ZM412 430V1483H575V430H412Z" />
<glyph unicode="&quot;" glyph-name="quotedbl" horiz-adv-x="684" d="M414 987V1483H614V987H414ZM70 987V1483H270V987H70Z" />
<glyph unicode="#" glyph-name="numbersign" horiz-adv-x="1974" d="M1126 598L1165 885H850L811 598H1126ZM653 598L692 885H504V1028H711L772 1483H930L868 1028H1184L1245 1483H1403L1341 1028H1530V885H1323L1284 598H1473V455H1266L1204 0H1044L1106 455H793L731
0H571L633 455H444V598H653Z" />
<glyph unicode="$" glyph-name="dollar" horiz-adv-x="1974" d="M1063 147H1270Q1420 147 1500 172T1616 255T1651 422Q1651 560 1583 607T1323 655H1063V147ZM899 836V1335H852Q786 1335 742 1335T648 1332T566 1326T499 1315T442 1299T398 1275T364 1242T342
1201T328 1148T324 1083Q324 1023 332 985T363 916T429 869T536 844T696 836H899ZM899 147V655Q783 655 701 658T539 669T405 690T303 727T225 781T174 856T144 956T135 1085Q135 1186 160 1258T231 1377T355 1451T526 1488T750 1499H899V1595H1063V1499H1180Q1365
1499 1486 1476T1677 1402T1774 1282T1802 1108V1057H1614Q1614 1108 1612 1138T1600 1201T1576 1251T1532 1286T1465 1311T1367 1325T1236 1333T1063 1335V836H1284Q1576 836 1707 749T1839 471V375Q1839 315 1828 266T1799 179T1750 112T1689 62T1614 27T1530
4T1438 -8T1342 -14T1243 -16H1063V-119H899V-16H688Q591 -16 517 -9T369 23T246 87T167 195T137 358V467H326V367Q326 252 400 200T657 147H899Z" />
<glyph unicode="%" glyph-name="percent" horiz-adv-x="2729" d="M991 766V1245Q991 1356 852 1356H354Q215 1356 215 1245V766Q215 657 354 657H852Q991 657 991 766ZM1038 -16L1546 1499H1681L1176 -16H1038ZM2515 236V715Q2515 825 2376 825H1878Q1739 825
1739 715V236Q1739 127 1878 127H2376Q2515 127 2515 236ZM51 760V1253Q51 1320 68 1367T110 1440T175 1479T246 1496T324 1499H883Q929 1499 960 1496T1032 1479T1096 1440T1138 1368T1155 1253V760Q1155 693 1138 646T1097 573T1032 534T961 517T883 514H324Q278
514 247 517T175 534T111 573T69 645T51 760ZM1575 229V723Q1575 779 1586 821T1618 890T1663 932T1721 956T1783 966T1847 969H2406Q2451 969 2483 966T2555 949T2619 910T2661 838T2679 723V229Q2679 173 2668 131T2636 63T2590 20T2532 -4T2470 -13T2406 -16H1847Q1801
-16 1770 -13T1698 4T1634 43T1592 115T1575 229Z" />
<glyph unicode="&amp;" glyph-name="ampersand" horiz-adv-x="2226" d="M2157 0L1880 143Q1847 93 1795 60T1675 11T1541 -10T1391 -16H674Q514 -16 410 11T245 101T161 250T137 471Q137 578 152 650T208 775T319 852T500 877V881Q459 908 441 921T399 955T368
994T351 1043T340 1109T338 1200Q338 1353 427 1426T670 1499H1393Q1598 1499 1688 1414T1778 1167V1044H1589V1155Q1589 1335 1395 1335H729Q618 1335 579 1297T539 1180Q539 1098 550 1063T610 1001L1753 397V729H1942V416Q1942 377 1931 309L2230 152L2157 0ZM1696
231L643 782H582Q560 782 536 779T474 760T408 718T359 642T338 524V424Q338 368 345 329T373 254T431 195T529 160T678 147H1364Q1664 147 1696 231Z" />
<glyph unicode="&apos;" glyph-name="quotesingle" horiz-adv-x="557" d="M178 987V1483H379V987H178Z" />
<glyph unicode="(" glyph-name="parenleft" horiz-adv-x="757" d="M125 442V934Q125 1019 128 1080T142 1203T170 1308T218 1390T290 1451T391 1486T526 1499H662V1335H535Q485 1335 453 1329T391 1303T347 1249T322 1158T313 1018V383Q313 253 360 200T535 147H662V-16H526Q467
-16 423 -11T330 11T247 59T183 140T140 265T125 442Z" />
<glyph unicode=")" glyph-name="parenright" horiz-adv-x="757" d="M96 -16V147H223Q286 147 323 158T390 202T432 298T444 465V1100Q444 1230 397 1282T223 1335H96V1499H231Q281 1499 319 1496T401 1480T477 1448T540 1394T590 1312T621 1195T633 1040V549Q633
464 630 403T616 279T588 174T540 93T468 32T366 -3T231 -16H96Z" />
<glyph unicode="*" glyph-name="asterisk" horiz-adv-x="1212" d="M719 1008V1135L606 1200L496 1135V1008L606 942L719 1008ZM168 1006V1137H494L330 1417L444 1483L606 1202L768 1483L883 1417L721 1137H1044V1006H721L883 725L768 659L606 940L444 659L330
725L494 1006H168Z" />
<glyph unicode="+" glyph-name="plus" horiz-adv-x="1228" d="M543 0V446H96V590H543V1036H686V590H1133V446H686V0H543Z" />
<glyph unicode="," glyph-name="comma" horiz-adv-x="987" d="M379 0V254H608V-6Q608 -134 549 -183T356 -233V-115Q419 -113 438 -93T457 0H379Z" />
<glyph unicode="-" glyph-name="hyphen" horiz-adv-x="909" d="M168 461V625H741V461H168Z" />
<glyph unicode="." glyph-name="period" horiz-adv-x="987" d="M379 0V254H608V0H379Z" />
<glyph unicode="/" glyph-name="slash" horiz-adv-x="757" d="M-92 -16L676 1499H850L80 -16H-92Z" />
<glyph unicode="0" glyph-name="zero" horiz-adv-x="1974" d="M125 479V1004Q125 1104 139 1179T189 1316T282 1418T428 1478T635 1499H1339Q1458 1499 1546 1478T1692 1418T1785 1317T1834 1179T1849 1004V479Q1849 379 1835 304T1785 167T1692 65T1546 5T1339
-16H635Q516 -16 428 5T282 65T189 166T140 304T125 479ZM1661 573V909Q1661 1011 1656 1074T1631 1190T1584 1267T1501 1309T1381 1331T1210 1335H764Q657 1335 593 1331T473 1310T390 1267T344 1190T319 1075T313 909V573Q313 471 318 408T343 293T390 216T473
173T593 151T764 147H1210Q1317 147 1381 151T1501 172T1584 215T1631 292T1656 407T1661 573Z" />
<glyph unicode="1" glyph-name="one" horiz-adv-x="1974" d="M1044 0V1311L489 870L387 999L997 1483H1233V0H1044Z" />
<glyph unicode="2" glyph-name="two" horiz-adv-x="1974" d="M150 0V262Q150 359 169 429T226 547T325 625T462 670T643 694L1303 741Q1375 746 1426 755T1512 782T1567 819T1599 872T1613 939T1616 1024Q1616 1093 1609 1139T1583 1226T1530 1288T1440 1322T1305
1335H682Q630 1335 596 1333T523 1324T460 1304T411 1267T373 1210T352 1129T344 1018V936H156V1075Q156 1303 281 1401T676 1499H1303Q1428 1499 1518 1476T1663 1414T1750 1311T1793 1178T1804 1014Q1804 802 1736 712Q1675 631 1523 599Q1423 578 1167 561L860
541Q762 535 702 530T581 517T488 502T424 480T379 452T354 412T341 361T338 295V164H1825V0H150Z" />
<glyph unicode="3" glyph-name="three" horiz-adv-x="1974" d="M795 674V838H1362Q1401 838 1432 840T1489 847T1534 857T1568 873T1592 893T1609 919T1619 950T1625 988T1627 1031T1628 1081Q1628 1141 1624 1179T1604 1247T1566 1293T1501 1319T1407 1332T1274
1335H700Q502 1335 423 1293T344 1147V1040H156V1141Q156 1321 257 1410T573 1499H1309Q1461 1499 1559 1478T1715 1408T1794 1291T1817 1118Q1817 1046 1814 1000T1801 915T1776 854T1734 814T1672 784T1585 760V756Q1658 747 1702 731T1779 678T1827 578T1841
416Q1841 254 1817 184Q1781 77 1662 31Q1541 -16 1305 -16H676Q472 -16 357 22T194 142T145 367V461H334Q334 396 337 357T351 277T382 216T438 178T524 154T649 147H1221Q1453 147 1522 162Q1604 180 1630 237Q1653 286 1653 416Q1653 476 1648 518T1629 590T1599
635T1552 660T1492 671T1413 674H795Z" />
<glyph unicode="4" glyph-name="four" horiz-adv-x="1974" d="M100 311V545L1319 1483H1593V475H1841V311H1593V0H1405V311H100ZM1405 475V1339L289 479V475H1405Z" />
<glyph unicode="5" glyph-name="five" horiz-adv-x="1974" d="M182 692V1483H1778V1319H371V856H375Q423 953 509 981T819 1010H1313Q1419 1010 1498 998T1642 957T1747 879T1809 759T1831 588V408Q1831 353 1828 313T1815 230T1787 157T1741 97T1671 48T1573
13T1442 -9T1274 -16H612Q480 -16 392 8T251 88T176 223T154 422V453H342Q342 398 345 362T358 288T389 226T443 184T526 156T645 147H1212Q1289 147 1345 150T1447 162T1523 183T1576 216T1611 261T1631 322T1640 398T1642 492V559Q1642 723 1556 784T1243 846H672Q604
846 562 842T477 822T407 775T362 692H182Z" />
<glyph unicode="6" glyph-name="six" horiz-adv-x="1974" d="M846 147H1120Q1354 147 1430 160Q1544 180 1585 251Q1622 315 1622 446Q1622 499 1621 531T1610 596T1588 645T1545 679T1482 702T1389 715T1265 722T1100 723H813Q710 723 638 718T513 697T430 662T381
607T358 534T352 436Q352 270 427 209Q489 158 647 150Q704 147 846 147ZM1604 1044V1135Q1604 1183 1589 1217T1538 1279T1436 1321T1272 1335H664Q606 1335 556 1325T458 1291T381 1217T352 1096V694H356Q376 755 413 795T500 855T598 880T705 887H1389Q1606
887 1708 800T1810 522V383Q1810 304 1794 243T1751 140T1680 69T1590 23T1477 -2T1352 -13T1212 -16H713Q648 -16 599 -14T490 -1T386 27T298 77T226 154T182 265T164 416V1110Q164 1198 194 1268T271 1380T383 1450T508 1488T635 1499H1239Q1370 1499 1467 1481T1626
1432T1725 1350T1777 1243T1792 1110V1044H1604Z" />
<glyph unicode="7" glyph-name="seven" horiz-adv-x="1974" d="M508 0L1659 1319H145V1483H1847V1260L748 0H508Z" />
<glyph unicode="8" glyph-name="eight" horiz-adv-x="1974" d="M795 147H1180Q1290 147 1359 150T1483 167T1565 196T1609 248T1630 322T1634 428Q1634 465 1632 493T1624 546T1610 588T1587 620T1557 644T1516 660T1466 671T1403 677T1328 679T1239 680H735Q681
680 646 680T572 677T509 671T459 660T418 644T388 621T365 589T351 547T342 494T340 428Q340 378 342 346T352 283T373 233T410 197T466 172T547 158T654 149T795 147ZM745 844H1229Q1288 844 1327 845T1407 848T1473 857T1523 872T1561 895T1587 927T1604 971T1613
1027T1616 1098Q1616 1173 1605 1215T1555 1286T1453 1325T1276 1335H698Q624 1335 572 1331T481 1316T419 1288T382 1243T363 1182T358 1098Q358 1057 361 1027T369 971T387 927T412 895T451 873T501 858T566 849T646 845T745 844ZM152 330V446Q152 538 163 591T207
682T291 736T434 764V768Q363 777 311 802T233 857T191 927T173 996T170 1061V1157Q170 1341 277 1420T625 1499H1350Q1590 1499 1697 1420T1804 1157V1061Q1804 1025 1801 997T1784 927T1744 857T1670 803T1554 768V764Q1614 754 1659 736T1743 686T1802 601T1823
475V330Q1823 142 1720 63T1391 -16H584Q358 -16 255 63T152 330Z" />
<glyph unicode="9" glyph-name="nine" horiz-adv-x="1974" d="M874 760H1161Q1265 760 1337 765T1461 786T1544 820T1593 875T1616 949T1622 1047Q1622 1212 1548 1273Q1486 1324 1328 1332Q1271 1335 1128 1335H854Q620 1335 544 1322Q430 1302 389 1231Q352
1167 352 1036Q352 983 353 951T364 886T386 837T429 803T491 780T585 768T709 761T874 760ZM182 373V438H371V348Q371 300 385 265T436 203T538 161T702 147H1311Q1356 147 1396 152T1479 174T1552 216T1602 286T1622 387V784H1618Q1598 725 1562 686T1474 628T1377
603T1270 596H586Q368 596 266 683T164 961V1100Q164 1179 180 1240T223 1343T294 1414T384 1460T497 1485T622 1496T762 1499H1262Q1327 1499 1376 1497T1485 1484T1589 1456T1677 1406T1748 1328T1793 1217T1810 1067V373Q1810 285 1780 215T1703 103T1591 33T1466
-5T1339 -16H735Q604 -16 507 2T348 51T249 133T197 240T182 373Z" />
<glyph unicode=":" glyph-name="colon" horiz-adv-x="987" d="M379 0V254H608V0H379ZM379 791V1044H608V791H379Z" />
<glyph unicode=";" glyph-name="semicolon" horiz-adv-x="987" d="M379 0V254H608V-6Q608 -134 549 -183T356 -233V-115Q415 -118 436 -93T457 0H379ZM379 791V1044H608V791H379Z" />
<glyph unicode="&lt;" glyph-name="less" horiz-adv-x="1228" d="M96 440V596L1133 1053V877L319 518L1133 160V-16L96 440Z" />
<glyph unicode="=" glyph-name="equal" horiz-adv-x="1228" d="M96 659V803H1133V659H96ZM96 233V377H1133V233H96Z" />
<glyph unicode="&gt;" glyph-name="greater" horiz-adv-x="1228" d="M1133 596V440L96 -16V160L909 518L96 877V1053L1133 596Z" />
<glyph unicode="?" glyph-name="question" horiz-adv-x="1619" d="M96 1004V1167Q96 1353 201 1425Q287 1485 495 1495Q570 1499 752 1499Q1089 1499 1214 1477Q1372 1450 1434 1364Q1499 1275 1499 1069Q1499 870 1424 787Q1365 722 1222 687Q1170 675 1024 649Q996
644 981 641T933 630T878 611T833 585T798 547T786 498V453H623V492Q623 549 629 587T655 657T701 708T780 746T891 778T1047 809Q1098 818 1126 824T1188 840T1237 858T1271 882T1297 915T1312 959T1321 1017T1323 1092Q1323 1140 1321 1171T1307 1233T1282 1280T1236
1312T1170 1335T1075 1347T949 1354T786 1356Q524 1356 445 1343Q332 1325 297 1262Q272 1218 272 1137V1004H96ZM590 0V254H819V0H590Z" />
<glyph unicode="@" glyph-name="at" horiz-adv-x="1638" d="M584 653Q584 557 628 501T748 444Q822 444 886 500T985 640T1020 807Q1020 892 972 946T854 1001Q779 1001 715 947T618 814T584 653ZM1366 319H1485Q1384 160 1219 72T862 -16Q701 -16 560 36T313
183T147 423T86 743Q86 951 190 1125T470 1399T852 1499Q990 1499 1117 1453T1340 1327T1494 1130T1552 877Q1552 766 1516 668T1423 505T1299 393T1169 323T1057 301Q1006 301 972 332T938 420H934Q886 367 825 334T702 301Q588 301 504 399T420 629Q420 723 451
815T536 980T670 1099T842 1145Q1003 1145 1077 1001L1112 1120H1270L1128 590Q1114 539 1114 498Q1114 444 1151 444Q1247 444 1328 563T1409 844Q1409 998 1333 1111T1132 1279T850 1335Q670 1335 528 1256T307 1041T229 737Q229 552 313 407T543 182T872 102Q1022
102 1143 155T1366 319Z" />
<glyph unicode="A" glyph-name="A" horiz-adv-x="2072" d="M31 0L911 1483H1161L2042 0H1815L1630 313H442L258 0H31ZM1534 477L1036 1319L539 477H1534Z" />
<glyph unicode="B" glyph-name="B" horiz-adv-x="2072" d="M1712 362V469Q1712 523 1700 561T1665 623T1606 660T1528 677T1427 682H397V164H1458Q1595 164 1653 212T1712 362ZM1655 1028V1163Q1655 1210 1632 1243T1572 1292T1504 1313T1444 1319H397V846H1434Q1655
846 1655 1028ZM197 0V1483H1462Q1573 1483 1652 1456T1774 1381T1836 1277T1855 1153V1026Q1855 936 1798 871T1616 793V784Q1680 781 1730 766T1823 720T1889 631T1913 492V315Q1913 165 1794 83T1483 0H197Z" />
<glyph unicode="C" glyph-name="C" horiz-adv-x="2072" d="M158 539V944Q158 1089 184 1189T271 1361T434 1465T686 1499H1454Q1919 1499 1919 1130V1004H1743V1071Q1743 1124 1733 1165T1708 1233T1667 1280T1615 1310T1551 1326T1481 1333T1403 1335H707Q645
1335 596 1327T501 1298T425 1243T376 1152T358 1020V463Q358 370 384 306T461 208T570 161T707 147H1409Q1612 147 1684 201T1757 406V498H1946V397Q1946 312 1934 251T1890 137T1801 52T1656 2T1444 -16H686Q536 -16 435 17T272 122T184 293T158 539Z" />
<glyph unicode="D" glyph-name="D" horiz-adv-x="2172" d="M1815 662V813Q1815 940 1799 1030T1753 1176T1675 1264T1571 1307T1436 1319H385V164H1403Q1460 164 1503 168T1591 185T1668 220T1729 279T1776 369T1804 494T1815 662ZM184 0V1483H1382Q1510 1483
1602 1469T1767 1421T1885 1333T1961 1194T2003 1000T2015 741Q2015 601 2003 497T1962 308T1885 166T1766 72T1599 17T1376 0H184Z" />
<glyph unicode="E" glyph-name="E" horiz-adv-x="1769" d="M197 0V1483H1653V1319H397V846H1604V682H397V164H1661V0H197Z" />
<glyph unicode="F" glyph-name="F" horiz-adv-x="1718" d="M197 0V1483H1610V1319H397V846H1563V682H397V0H197Z" />
<glyph unicode="G" glyph-name="G" horiz-adv-x="2172" d="M2015 735V530Q2015 228 1903 106T1513 -16H686Q536 -16 435 17T272 122T184 293T158 539V944Q158 1089 184 1189T271 1361T434 1465T686 1499H1444Q1531 1499 1604 1490T1752 1454T1878 1384T1962 1266T1995
1092V1038H1806Q1806 1081 1804 1113T1793 1175T1775 1224T1744 1262T1703 1290T1645 1310T1571 1323T1477 1331T1364 1334T1227 1335H707Q645 1335 596 1327T501 1298T425 1243T376 1152T358 1020V463Q358 370 384 306T461 208T570 161T707 147H1491Q1650 147
1732 210T1815 422V571H1055V735H2015Z" />
<glyph unicode="H" glyph-name="H" horiz-adv-x="2134" d="M197 0V1483H397V846H1737V1483H1937V0H1737V682H397V0H197Z" />
<glyph unicode="I" glyph-name="I" horiz-adv-x="606" d="M203 0V1483H403V0H203Z" />
<glyph unicode="J" glyph-name="J" horiz-adv-x="1619" d="M53 383V547H242V430Q242 370 247 328T266 253T302 201T361 169T444 152T557 147H907Q1090 147 1162 193T1235 377V1483H1436V416Q1436 287 1408 204T1316 72T1159 4T924 -16H543Q280 -16 167 78T53 383Z" />
<glyph unicode="K" glyph-name="K" horiz-adv-x="2021" d="M197 0V1483H397V854H649L1579 1483H1907L1911 1479L848 770L2007 4L2003 0H1651L633 690H397V0H197Z" />
<glyph unicode="L" glyph-name="L" horiz-adv-x="1566" d="M197 0V1483H397V164H1548V0H197Z" />
<glyph unicode="M" glyph-name="M" horiz-adv-x="2727" d="M184 0V1483H498L1364 240L2230 1483H2544V0H2343V1303H2339L1436 0H1292L389 1303H385V0H184Z" />
<glyph unicode="N" glyph-name="N" horiz-adv-x="2226" d="M184 0V1483H483L1841 180V1483H2042V0H1743L385 1303V0H184Z" />
<glyph unicode="O" glyph-name="O" horiz-adv-x="2226" d="M1868 463V1020Q1868 1095 1850 1151T1802 1242T1725 1298T1631 1327T1520 1335H707Q645 1335 596 1327T501 1298T425 1243T376 1152T358 1020V463Q358 370 384 306T461 208T570 161T707 147H1520Q1598
147 1656 160T1765 207T1841 305T1868 463ZM158 539V944Q158 1089 184 1189T271 1361T434 1465T686 1499H1540Q1690 1499 1792 1466T1955 1361T2042 1190T2068 944V539Q2068 394 2042 294T1955 122T1792 18T1540 -16H686Q536 -16 435 17T272 122T184 293T158 539Z"
/>
<glyph unicode="P" glyph-name="P" horiz-adv-x="1923" d="M197 0V1483H1417Q1505 1483 1566 1475T1682 1441T1770 1371T1822 1254T1841 1079Q1841 1017 1840 975T1833 885T1818 804T1792 738T1751 682T1693 640T1613 608T1509 591T1378 584H397V0H197ZM1640 958V1100Q1640
1226 1575 1272T1370 1319H397V748H1386Q1511 748 1575 797T1640 958Z" />
<glyph unicode="Q" glyph-name="Q" horiz-adv-x="2226" d="M2103 63L1972 145Q1856 -16 1540 -16H686Q536 -16 435 17T272 122T184 293T158 539V944Q158 1089 184 1189T271 1361T434 1465T686 1499H1540Q1690 1499 1792 1466T1955 1361T2042 1190T2068 944V539Q2068
401 2044 299L2193 205L2103 63ZM1868 412V1020Q1868 1095 1850 1151T1802 1242T1725 1298T1631 1327T1520 1335H707Q645 1335 596 1327T501 1298T425 1243T376 1152T358 1020V463Q358 370 384 306T461 208T570 161T707 147H1520Q1637 147 1700 169T1806 252L1212
629L1303 770L1868 412Z" />
<glyph unicode="R" glyph-name="R" horiz-adv-x="2021" d="M184 0V1483H1370Q1497 1483 1586 1465T1729 1416T1814 1330T1855 1214T1866 1063V942Q1866 866 1846 813T1787 729T1701 683T1593 662V657Q1668 644 1719 618T1797 555T1836 475T1847 379V0H1659V326Q1659
394 1645 441T1608 517T1546 560T1465 581T1364 586H385V0H184ZM385 750H1348Q1517 750 1591 799T1665 965V1100Q1665 1186 1635 1231T1526 1298T1298 1319H385V750Z" />
<glyph unicode="S" glyph-name="S" horiz-adv-x="2021" d="M160 358V467H348V362Q348 249 421 198T676 147H1298Q1516 147 1595 204T1675 422Q1675 560 1608 607T1352 655H971Q871 655 799 656T652 662T525 673T421 693T334 723T268 764T218 818T185 889T164 977T158
1085Q158 1157 170 1214T207 1314T269 1389T356 1442T469 1476T607 1494T772 1499H1204Q1389 1499 1511 1476T1702 1402T1799 1282T1827 1108V1057H1638Q1637 1108 1635 1137T1624 1199T1600 1248T1557 1283T1490 1309T1392 1324T1259 1333T1083 1335H870Q762 1335
696 1333T564 1321T462 1295T397 1248T357 1175T346 1071Q346 1001 359 960T413 888T524 847T715 836H1309Q1601 836 1732 749T1864 471V375Q1864 315 1853 266T1824 179T1775 112T1714 62T1639 27T1555 4T1463 -8T1367 -14T1268 -16H711Q614 -16 540 -9T392 23T269
87T190 195T160 358Z" />
<glyph unicode="T" glyph-name="T" horiz-adv-x="1769" d="M784 0V1319H35V1483H1735V1319H985V0H784Z" />
<glyph unicode="U" glyph-name="U" horiz-adv-x="2134" d="M197 373V1483H397V375Q397 316 409 278T455 208T554 162T719 147H1415Q1515 147 1580 161T1678 207T1724 277T1737 375V1483H1937V373Q1937 260 1909 186T1814 66T1652 3T1409 -16H725Q579 -16 483 2T320
66T226 185T197 373Z" />
<glyph unicode="V" glyph-name="V" horiz-adv-x="1974" d="M864 0L43 1483H268L987 180L1706 1483H1931L1110 0H864Z" />
<glyph unicode="W" glyph-name="W" horiz-adv-x="2727" d="M602 0L12 1483H209L727 186L1235 1483H1493L1995 180L2519 1483H2716L2126 0H1868L1364 1303L860 0H602Z" />
<glyph unicode="X" glyph-name="X" horiz-adv-x="2072" d="M43 0L860 784L135 1483H420L1036 887L1661 1483H1937L1212 784L2030 0H1747L1036 688L336 0H43Z" />
<glyph unicode="Y" glyph-name="Y" horiz-adv-x="1974" d="M887 0V627L37 1483H307L987 795L1667 1483H1937L1087 627V0H887Z" />
<glyph unicode="Z" glyph-name="Z" horiz-adv-x="1869" d="M86 0V156L1440 1319H129V1483H1755V1339L395 164H1784V0H86Z" />
<glyph unicode="[" glyph-name="bracketleft" horiz-adv-x="757" d="M150 0V1483H674V1319H326V164H674V0H150Z" />
<glyph unicode="\" glyph-name="backslash" horiz-adv-x="757" d="M678 -16L-92 1499H82L850 -16H678Z" />
<glyph unicode="]" glyph-name="bracketright" horiz-adv-x="757" d="M84 0V164H432V1319H84V1483H608V0H84Z" />
<glyph unicode="^" glyph-name="asciicircum" horiz-adv-x="1228" d="M123 655L530 1483H698L1106 655H942L614 1319L287 655H123Z" />
<glyph unicode="_" glyph-name="underscore" horiz-adv-x="1024" d="M0 -256V-154H1024V-256H0Z" />
<glyph unicode="`" glyph-name="grave" horiz-adv-x="557" d="M313 1204L-63 1583H147L451 1204H313Z" />
<glyph unicode="a" glyph-name="a" horiz-adv-x="1566" d="M1245 0V104H1241Q1216 54 1182 30T1077 -5T868 -16H446Q348 -16 282 4T178 67T126 164T111 297V367Q111 437 132 485T188 563T287 607T417 628T586 633H868Q1042 633 1119 608T1241 508H1245V705Q1245
761 1230 799T1187 861T1109 897T1001 914T856 918H598Q517 918 464 909T383 880T345 837T334 778V741H158V793Q158 936 258 998T594 1061H872Q979 1061 1056 1054T1206 1024T1323 962T1394 858T1421 700V0H1245ZM1245 281V328Q1245 371 1229 400T1184 446T1104
473T994 486T848 489H578Q406 489 347 457T287 326V293Q287 230 307 197T388 145T569 127H803Q1055 127 1150 157T1245 281Z" />
<glyph unicode="b" glyph-name="b" horiz-adv-x="1619" d="M1325 426V631Q1325 720 1304 777T1234 865T1123 907T963 918H725Q648 918 593 912T488 888T408 838T360 754T342 627V428Q342 278 420 203T688 127H975Q1082 127 1151 144T1258 201T1310 292T1325 426ZM166
0V1483H342V905H346Q374 987 452 1024T680 1061H948Q1162 1061 1281 1017T1450 876T1501 608V424Q1501 318 1475 240T1403 113T1287 35T1138 -5T958 -16H713Q569 -16 470 29T334 166H330V0H166Z" />
<glyph unicode="c" glyph-name="c" horiz-adv-x="1517" d="M119 406V639Q119 718 135 781T177 888T244 964T327 1014T426 1043T532 1057T643 1061H938Q1176 1061 1285 970T1395 707V678H1231V702Q1231 825 1158 871T940 918H616Q576 918 546 916T481 907T420 888T370
855T330 804T305 731T295 633V414Q295 345 312 295T358 212T434 161T531 135T651 127H948Q1249 127 1249 346V381H1413V350Q1413 152 1307 68T954 -16H557Q500 -16 450 -9T336 24T227 93T151 217T119 406Z" />
<glyph unicode="d" glyph-name="d" horiz-adv-x="1619" d="M295 631V426Q295 345 309 293T362 201T469 145T645 127H932Q1121 127 1199 202T1278 428V627Q1278 701 1261 753T1213 837T1132 887T1027 912T895 918H657Q560 918 498 907T387 865T317 777T295 631ZM1454
1483V0H1290V166H1286Q1249 74 1150 29T907 -16H662Q560 -16 482 -5T334 35T218 113T146 240T119 424V608Q119 779 169 875T339 1016T672 1061H940Q1090 1061 1168 1024T1274 905H1278V1483H1454Z" />
<glyph unicode="e" glyph-name="e" horiz-adv-x="1566" d="M1280 635V705Q1280 748 1263 783T1205 850T1091 900T913 918H655Q567 918 512 911T414 887T348 837T313 756T295 635H1280ZM119 412V639Q119 718 134 781T176 888T242 964T324 1014T421 1043T523 1057T631
1061H913Q1014 1061 1091 1050T1240 1009T1356 929T1429 798T1456 608V492H295V426Q295 336 317 279T391 187T520 140T717 127H958Q1029 127 1076 131T1164 147T1227 180T1263 234T1280 315H1456V295Q1456 207 1421 146T1315 49T1151 -1T930 -16H610Q555 -16 510
-13T413 2T320 31T241 82T176 159T135 267T119 412Z" />
<glyph unicode="f" glyph-name="f" horiz-adv-x="1011" d="M285 0V901H57V1044H285V1137Q285 1313 379 1398T629 1483H958V1339H643Q550 1339 506 1294T461 1174V1044H958V901H461V0H285Z" />
<glyph unicode="g" glyph-name="g" horiz-adv-x="1619" d="M1278 471V598Q1281 755 1211 836T965 918H606Q535 918 481 907T384 872T319 803T295 696V504Q294 327 362 259T594 190H934Q1117 190 1197 260T1278 471ZM1454 1044V2Q1454 -89 1423 -158T1344 -267T1227
-333T1095 -368T958 -377H561Q468 -377 395 -357T278 -306T204 -233T163 -150T152 -66V-31H315V-59Q315 -233 618 -233H791Q1018 -233 1096 -217Q1208 -195 1247 -118Q1278 -58 1278 53V209H1274Q1259 169 1237 142T1176 92T1073 58T920 47H557Q339 47 229 154T119
465V639Q119 748 150 828T227 951T340 1021T464 1054T590 1061H965Q1020 1061 1064 1053T1153 1024T1232 961T1286 858H1290V1044H1454Z" />
<glyph unicode="h" glyph-name="h" horiz-adv-x="1619" d="M166 0V1483H342V864H346Q393 979 492 1020T768 1061H1020Q1139 1061 1226 1033T1361 954T1432 842T1454 707V0H1278V664Q1278 715 1271 750T1241 819T1177 873T1064 905T893 918H848Q691 918 595 903T441
848T363 749T342 594V0H166Z" />
<glyph unicode="i" glyph-name="i" horiz-adv-x="557" d="M190 0V1044H367V0H190ZM190 1290V1483H367V1290H190Z" />
<glyph unicode="j" glyph-name="j" horiz-adv-x="557" d="M18 -365V-221Q122 -221 156 -197T190 -94V1044H367V-121Q367 -233 294 -299T88 -365H18ZM190 1290V1483H367V1290H190Z" />
<glyph unicode="k" glyph-name="k" horiz-adv-x="1466" d="M166 0V1483H342V649H428L1036 1044H1311L1315 1040L594 578L1452 4L1448 0H1174L418 506H342V0H166Z" />
<glyph unicode="l" glyph-name="l" horiz-adv-x="557" d="M190 0V1483H367V0H190Z" />
<glyph unicode="m" glyph-name="m" horiz-adv-x="2529" d="M166 0V1044H330V922H334Q388 1001 468 1031T684 1061H969Q1090 1061 1178 1012T1307 868Q1395 1061 1694 1061H1907Q2122 1061 2242 969T2363 700V0H2187V680Q2187 720 2180 752T2150 816T2092 869T1995
904T1853 918H1729Q1636 918 1570 903T1465 862T1404 796T1375 715T1368 618V0H1192V633Q1192 713 1178 764T1125 851T1020 902T848 918H672Q342 918 342 655V0H166Z" />
<glyph unicode="n" glyph-name="n" horiz-adv-x="1619" d="M166 0V1044H330V864H334Q358 924 395 963T488 1023T605 1053T756 1061H1020Q1139 1061 1226 1033T1361 954T1432 842T1454 707V0H1278V664Q1278 715 1271 750T1241 819T1177 873T1064 905T893 918H848Q691
918 595 903T441 848T363 749T342 594V0H166Z" />
<glyph unicode="o" glyph-name="o" horiz-adv-x="1669" d="M131 408V637Q131 738 159 813T237 935T362 1010T520 1050T709 1061H961Q1067 1061 1149 1050T1307 1011T1431 935T1509 813T1538 637V408Q1538 307 1510 232T1432 110T1307 35T1150 -5T961 -16H709Q603
-16 520 -5T362 34T238 109T160 231T131 408ZM1362 418V627Q1362 698 1345 750T1299 834T1225 885T1130 911T1014 918H655Q589 918 540 911T445 885T370 835T324 751T307 627V418Q307 346 324 294T370 210T445 159T540 134T655 127H1014Q1098 127 1156 138T1263
180T1337 270T1362 418Z" />
<glyph unicode="p" glyph-name="p" horiz-adv-x="1619" d="M1325 414V618Q1325 698 1311 751T1262 843T1166 900T1012 918H662Q342 918 342 616V418Q342 345 360 292T408 208T484 158T576 133T684 127H997Q1080 127 1135 138T1236 179T1303 267T1325 414ZM166
-365V1044H330V879H334Q371 970 465 1015T684 1061H1018Q1099 1061 1165 1050T1295 1010T1403 932T1474 805T1501 621V436Q1501 186 1383 85T989 -16H653Q515 -16 445 20T346 139H342V-365H166Z" />
<glyph unicode="q" glyph-name="q" horiz-adv-x="1619" d="M1278 418V616Q1278 918 958 918H608Q516 918 455 900T358 844T309 752T295 618V414Q295 325 316 268T383 180T484 138T623 127H936Q997 127 1043 133T1136 157T1211 207T1259 292T1278 418ZM1278 -365V139H1274Q1246
57 1176 21T967 -16H631Q355 -16 237 85T119 436V621Q119 726 146 805T216 932T324 1009T455 1050T602 1061H936Q1060 1061 1154 1016T1286 879H1290V1044H1454V-365H1278Z" />
<glyph unicode="r" glyph-name="r" horiz-adv-x="1314" d="M180 0V1044H344V893H348Q430 1061 668 1061H834Q1077 1061 1174 977T1272 698V573H1108V618Q1108 686 1103 730T1082 810T1043 865T975 897T878 914T741 918H633Q500 918 428 845T356 664V0H180Z" />
<glyph unicode="s" glyph-name="s" horiz-adv-x="1566" d="M127 297V360H291V309Q291 211 347 169T539 127H915Q990 127 1033 128T1122 135T1189 151T1231 180T1257 226T1264 293V301Q1264 342 1256 368T1224 416T1150 447T1024 457H481Q296 457 219 521T141 735V797Q141
865 163 911T243 992T406 1044T672 1061H942Q1058 1061 1141 1048T1273 1012T1350 955T1386 884T1395 799V743H1231V754Q1231 784 1227 807T1211 847T1188 876T1153 895T1111 908T1059 915T1001 917T932 918H625Q494 918 431 907T343 865T317 774V735Q317 688 331
661T393 617T530 600H995Q1085 600 1144 595T1264 572T1361 522T1418 432T1440 291V287Q1440 226 1424 178T1382 99T1316 45T1237 11T1144 -7T1050 -14T954 -16H631Q433 -16 351 2Q191 36 147 164Q127 220 127 297Z" />
<glyph unicode="t" glyph-name="t" horiz-adv-x="1214" d="M260 313V901H31V1044H260V1292H436V1044H1135V901H436V381Q436 236 493 182T696 127H752Q842 127 893 137T974 179T1013 260T1022 395V473H1165V358Q1165 306 1163 272T1152 194T1127 123T1082 66T1010
21T906 -5T764 -16H668Q260 -16 260 313Z" />
<glyph unicode="u" glyph-name="u" horiz-adv-x="1619" d="M1290 0V180H1286Q1262 120 1225 81T1132 21T1015 -8T864 -16H600Q481 -16 394 12T259 91T188 203T166 338V1044H342V381Q342 330 349 295T379 226T443 171T556 139T727 127H772Q929 127 1025 142T1179
197T1257 296T1278 451V1044H1454V0H1290Z" />
<glyph unicode="v" glyph-name="v" horiz-adv-x="1413" d="M602 0L12 1044H199L707 143L1214 1044H1401L811 0H602Z" />
<glyph unicode="w" glyph-name="w" horiz-adv-x="2134" d="M489 0L14 1044H201L608 143L940 1044H1194L1526 143L1933 1044H2120L1645 0H1401L1067 901L733 0H489Z" />
<glyph unicode="x" glyph-name="x" horiz-adv-x="1413" d="M10 0L582 557L86 1044H328L707 662L1085 1044H1327L831 557L1403 0H1151L707 453L262 0H10Z" />
<glyph unicode="y" glyph-name="y" horiz-adv-x="1366" d="M223 -389V-246Q298 -246 342 -244T431 -233T500 -210T553 -169T599 -107T643 -16H600L8 1044H207L713 121L1167 1044H1358L768 -129Q733 -198 703 -239T635 -311T539 -358T410 -380T223 -389Z" />
<glyph unicode="z" glyph-name="z" horiz-adv-x="1366" d="M92 0V143L1020 897V901H123V1044H1262V901L334 147V143H1274V0H92Z" />
<glyph unicode="{" glyph-name="braceleft" horiz-adv-x="757" d="M94 670V813Q162 815 217 874T272 1030V1212Q272 1276 294 1329T351 1415T426 1465T504 1483H664V1339H551Q449 1339 449 1176V1001Q449 948 434 904T398 832T349 785T300 756T258 743V739Q279
735 299 728T348 701T398 653T434 578T449 471V307Q449 143 551 143H664V0H504Q420 0 346 73T272 270V442Q272 545 218 606T94 670Z" />
<glyph unicode="|" glyph-name="bar" horiz-adv-x="454" d="M145 1536H309V-512H145V1536Z" />
<glyph unicode="}" glyph-name="braceright" horiz-adv-x="757" d="M94 0V143H207Q309 143 309 307V481Q309 535 323 579T359 651T408 698T458 726T500 739V743Q479 747 458 755T409 782T360 830T324 905T309 1012V1176Q309 1339 207 1339H94V1483H254Q292 1483
331 1466T406 1416T463 1330T485 1212V1040Q485 938 540 877T664 813V670Q596 668 541 609T485 453V270Q485 147 412 74T254 0H94Z" />
<glyph unicode="~" glyph-name="asciitilde" horiz-adv-x="1228" d="M215 367L141 487Q231 659 397 659Q494 659 635 594Q691 567 714 557T774 535T834 522Q863 522 888 534T938 571T976 616T1014 672L1087 551Q997 379 831 379Q739 379 594 444Q540 470 516 481T455
504T395 516Q366 516 341 505T291 467T253 422T215 367Z" />
</font>
</defs>
</svg>
