<?xml version="1.0" standalone="no"?>
<!DOCTYPE svg PUBLIC "-//W3C//DTD SVG 1.1//EN" "http://www.w3.org/Graphics/SVG/1.1/DTD/svg11.dtd" >
<svg>
<metadata>
Created by FontForge 20110222 at Mon Mar  7 11:34:41 2011
 By www-data
Copyright [c]  - Roger White - 1994 - All Rights Reserved - see .txt file for terms of distribution and use.
</metadata>
<defs>
<font id="Milford" horiz-adv-x="590" >
  <font-face 
    font-family="Milford"
    font-weight="400"
    font-stretch="normal"
    units-per-em="1000"
    panose-1="2 0 5 3 0 0 0 0 0 0"
    ascent="800"
    descent="-200"
    x-height="563"
    cap-height="752"
    bbox="-44 -234 1181 973"
    underline-thickness="50"
    underline-position="-100"
    unicode-range="U+0021-2122"
  />
    <missing-glyph />
    <glyph glyph-name="exclam" unicode="!" horiz-adv-x="307" 
d="M208 537v215h-109l1 -194l7 -138l17 -234h58zM203 0v104h-99v-104h99z" />
    <glyph glyph-name="quotedbl" unicode="&#x22;" horiz-adv-x="355" 
d="M302 430v271h-80v-271h80zM131 430v271h-78v-271h78z" />
    <glyph glyph-name="numbersign" unicode="#" horiz-adv-x="909" 
d="M858 490h-176l92 223h-94l-95 -223h-147l94 223h-97l-92 -223h-191l-29 -70h191l-53 -129l-181 1l-29 -72h177l-92 -222h96l92 222h150l-94 -222h97l92 222h187l28 71h-185l54 129h174zM558 420l-53 -131h-150l53 131h150z" />
    <glyph glyph-name="dollar" unicode="$" horiz-adv-x="588" 
d="M314 424v252c75 -15 107 -53 107 -125h96c0 114 -57 179 -203 193v69h-51v-69c-34 0 -62 -5 -91 -17c-98 -56 -117 -81 -117 -192c0 -103 125 -159 208 -183v-284c-91 0 -123 42 -123 172h-96c0 -197 101 -240 219 -240v-96h51v96c124 0 224 78 224 176
c4 137 -27 177 -224 248zM263 438c-82 28 -111 59 -111 119c0 69 46 121 111 121v-240zM440 203c0 -79 -52 -135 -126 -135v266c91 -31 126 -67 126 -131z" />
    <glyph glyph-name="percent" unicode="%" horiz-adv-x="822" 
d="M769 188c-8 136 -45 180 -183 180c-87 0 -139 -68 -139 -181c0 -123 54 -187 158 -187c107 0 164 66 164 188zM687 184c0 -84 -27 -124 -90 -124c-52 0 -72 35 -72 129c0 80 29 119 89 119c51 0 73 -38 73 -124zM378 564c0 116 -57 179 -163 179s-160 -61 -160 -181
c0 -123 53 -185 159 -185c107 0 164 66 164 187zM218 437c-61 0 -83 35 -83 107c0 86 24 139 63 139c46 0 72 -10 80 -31l15 -46c10 -94 0 -169 -75 -169zM643 758h-67l-401 -772h69z" />
    <glyph glyph-name="ampersand" unicode="&#x26;" horiz-adv-x="721" 
d="M706 0l-121 146c38 42 58 102 70 204h-95l-11 -73c-4 -19 -10 -38 -19 -66l-168 211l39 22l33 23c26 20 44 40 53 60l16 38c5 21 5 22 7 51c0 78 -78 137 -178 137c-94 0 -173 -64 -173 -140c0 -66 29 -130 83 -181c-144 -74 -176 -153 -176 -234
c0 -111 103 -210 217 -210c107 0 192 29 247 84l62 -72h114zM415 604c0 -51 -33 -95 -96 -129c-40 36 -68 91 -68 136s34 75 86 75c48 0 78 -32 78 -82zM481 135c-38 -47 -99 -73 -169 -73c-76 0 -146 72 -146 151c0 72 33 116 120 162z" />
    <glyph glyph-name="quotesingle" unicode="'" horiz-adv-x="288" 
d="M199 648v104h-107v-102h52c0 -53 -20 -90 -52 -97v-47c65 14 107 70 107 142z" />
    <glyph glyph-name="parenleft" unicode="(" horiz-adv-x="375" 
d="M358 -219c-128 227 -141 258 -148 512c0 177 41 304 148 459h-68c-122 -152 -184 -308 -184 -463c0 -138 22 -225 86 -348l98 -160h68z" />
    <glyph glyph-name="parenright" unicode=")" horiz-adv-x="375" 
d="M281 268c0 172 -71 345 -182 484h-67c105 -157 147 -286 147 -459c0 -214 -26 -306 -147 -512h67c130 184 182 324 182 487z" />
    <glyph glyph-name="asterisk" unicode="*" 
d="M520 590l-29 64l-162 -49v147h-72v-147l-163 51l-24 -66l170 -39l-116 -121l67 -41l102 127l106 -127l67 41l-116 121z" />
    <glyph glyph-name="plus" unicode="+" horiz-adv-x="982" 
d="M837 265v67h-305v264h-80v-264h-307v-67h307v-265h80v265h305z" />
    <glyph glyph-name="comma" unicode="," horiz-adv-x="295" 
d="M199 0v104h-107v-104h48c1 -7 1 -13 3 -21c0 -30 -20 -66 -51 -75v-47c70 12 107 77 107 143z" />
    <glyph glyph-name="hyphen" unicode="-" horiz-adv-x="389" 
d="M336 238v86h-283v-86h283z" />
    <glyph glyph-name="period" unicode="." horiz-adv-x="295" 
d="M201 0v104h-107v-104h107z" />
    <glyph glyph-name="slash" unicode="/" horiz-adv-x="327" 
d="M334 770h-63l-315 -862h63z" />
    <glyph glyph-name="zero" unicode="0" horiz-adv-x="588" 
d="M533 412c0 238 -76 343 -247 343c-121 0 -202 -71 -220 -200c-7 -55 -11 -116 -11 -184c0 -282 64 -385 242 -385c136 0 212 83 230 249c4 34 6 93 6 177zM432 308c-3 -178 -37 -249 -136 -249c-72 0 -118 45 -127 128l-9 53l-3 49l2 223c0 89 51 171 106 171
c27 0 45 -1 56 -3l32 -7c29 -8 54 -48 64 -101l9 -49c3 -14 4 -16 5 -45z" />
    <glyph glyph-name="one" unicode="1" horiz-adv-x="588" 
d="M371 0v758h-78c0 -83 -58 -141 -206 -141v-64h188v-553h96z" />
    <glyph glyph-name="two" unicode="2" horiz-adv-x="588" 
d="M530 0v76h-373c6 61 34 103 100 155c260 180 274 200 262 367c0 76 -101 158 -198 158c-192 0 -254 -66 -254 -252h95c0 135 32 179 134 179c70 0 125 -50 125 -114c-4 -110 -8 -128 -119 -210c-240 -172 -245 -219 -245 -352l1 -7h472z" />
    <glyph glyph-name="three" unicode="3" horiz-adv-x="588" 
d="M529 215c0 110 -49 168 -154 183c82 21 128 77 128 180c0 108 -87 177 -227 177c-138 0 -213 -78 -213 -222h94c0 104 35 150 114 150c87 0 133 -47 133 -136c0 -83 -55 -121 -182 -121v-69c141 0 208 -37 208 -127c0 -87 -37 -158 -88 -165l-65 -7
c-110 18 -132 37 -132 167h-99c0 -157 80 -239 234 -239c156 0 249 85 249 229z" />
    <glyph glyph-name="four" unicode="4" horiz-adv-x="588" 
d="M535 191v73h-82v492h-86l-330 -490v-75h321l1 -191h94v191h82zM369 648l-11 -384h-240z" />
    <glyph glyph-name="five" unicode="5" horiz-adv-x="588" 
d="M526 251c0 138 -85 246 -194 246c-102 0 -149 -15 -170 -54l32 225h297v74h-373l-48 -385l82 -5c24 51 63 70 145 70c74 0 124 -66 124 -164c0 -140 -44 -199 -152 -199c-76 0 -122 51 -122 138h-96c0 -138 83 -213 235 -213c146 0 240 104 240 267z" />
    <glyph glyph-name="six" unicode="6" horiz-adv-x="588" 
d="M543 247c0 136 -86 236 -202 236c-105 0 -164 -28 -191 -94l2 55l6 53c9 76 14 86 38 128c23 54 72 60 123 60c57 0 100 -46 100 -109h98c0 109 -86 181 -217 181c-194 0 -246 -171 -246 -399c0 -250 72 -372 237 -372c122 0 216 64 239 162l10 54zM440 240
c0 -110 -51 -183 -128 -183c-109 0 -150 64 -150 210c0 88 45 145 138 145c91 0 140 -60 140 -172z" />
    <glyph glyph-name="seven" unicode="7" horiz-adv-x="588" 
d="M535 672v70h-482v-82h397c-180 -204 -272 -399 -312 -660h111c0 204 124 501 286 672z" />
    <glyph glyph-name="eight" unicode="8" horiz-adv-x="588" 
d="M532 215c0 113 -45 170 -152 193c92 29 130 80 130 175c0 101 -89 173 -216 173c-123 0 -211 -75 -211 -177c0 -98 37 -149 127 -173c-97 -18 -156 -89 -156 -187c0 -113 68 -204 153 -223c25 -7 66 -10 123 -10c119 0 202 94 202 229zM413 551c0 -57 -50 -111 -119 -111
c-67 0 -114 50 -114 130c0 74 44 116 123 116c70 0 110 -49 110 -135zM431 213c0 -88 -52 -154 -118 -154c-97 0 -115 12 -148 97c-6 20 -9 47 -9 81c0 80 55 133 139 133c88 0 136 -55 136 -157z" />
    <glyph glyph-name="nine" unicode="9" horiz-adv-x="588" 
d="M534 389c0 247 -66 324 -146 351l-58 10c-20 4 -53 6 -99 6c-93 0 -189 -129 -189 -258c0 -134 90 -241 203 -241c107 0 166 29 193 95l-1 -42l-15 -96c-21 -121 -67 -156 -142 -156c-69 0 -111 44 -111 106h-99c0 -110 85 -180 218 -180c167 0 246 131 246 405zM426 498
c0 -113 -44 -168 -132 -168c-89 0 -147 61 -147 154c0 138 46 200 150 200c78 0 129 -73 129 -186z" />
    <glyph glyph-name="colon" unicode=":" horiz-adv-x="295" 
d="M201 451v104h-107v-104h107zM201 0v104h-107v-104h107z" />
    <glyph glyph-name="semicolon" unicode=";" horiz-adv-x="295" 
d="M201 451v104h-107v-104h107zM201 0v104h-107v-104h51c3 -54 -15 -87 -51 -96v-47c65 11 107 68 107 143z" />
    <glyph glyph-name="less" unicode="&#x3c;" horiz-adv-x="982" 
d="M830 31v74l-560 194l560 191v76l-679 -236v-62z" />
    <glyph glyph-name="equal" unicode="=" horiz-adv-x="982" 
d="M837 361v69h-692v-69h692zM837 168v66h-692v-66h692z" />
    <glyph glyph-name="greater" unicode="&#x3e;" horiz-adv-x="982" 
d="M830 268v62l-679 236v-76l562 -191l-562 -194v-74z" />
    <glyph glyph-name="question" unicode="?" horiz-adv-x="585" 
d="M529 571c0 125 -85 200 -230 200c-137 0 -212 -85 -212 -238h97l-1 44c0 62 54 123 118 123c78 0 125 -49 125 -128c0 -39 -15 -76 -46 -113l-86 -94c-31 -41 -46 -76 -46 -106l1 -70h90l-2 54c0 25 17 59 50 100l92 99c33 41 50 84 50 129zM341 0v104h-99v-104h99z" />
    <glyph glyph-name="at" unicode="@" horiz-adv-x="1180" 
d="M1120 377c0 194 -198 338 -476 338c-356 0 -583 -177 -583 -505c0 -179 241 -352 483 -352c218 0 290 17 438 109l-32 39c-118 -66 -239 -93 -410 -93c-221 0 -397 147 -397 347c0 203 216 395 407 395l163 -3c137 -24 194 -50 254 -112c46 -49 69 -99 69 -152
c0 -159 -99 -270 -235 -270c-33 0 -43 21 -38 64l85 291h-76l-32 -55c-36 54 -83 74 -180 74c-107 0 -236 -145 -236 -264c0 -103 66 -169 169 -169c80 0 146 30 187 84c0 -35 17 -87 102 -87c223 11 338 160 338 321zM719 348l-30 -101c-26 -76 -67 -136 -156 -136
c-81 0 -115 37 -115 126c0 96 84 200 165 200c80 0 127 -31 136 -89z" />
    <glyph glyph-name="A" unicode="A" horiz-adv-x="650" 
d="M631 0l-246 752h-124l-242 -752h99l64 217h282l66 -217h101zM440 293h-235l117 395z" />
    <glyph glyph-name="B" unicode="B" horiz-adv-x="638" 
d="M577 224c0 95 -53 156 -153 176c88 23 125 77 125 183c0 111 -81 169 -237 169h-234v-752c408 0 493 18 499 224zM447 561c0 -94 -47 -129 -166 -129h-106v254c208 10 272 -22 272 -125zM470 201c0 -84 -56 -127 -168 -127h-127v289c242 0 295 -24 295 -162z" />
    <glyph glyph-name="C" unicode="C" horiz-adv-x="666" 
d="M597 275h-97c0 -153 -52 -213 -180 -213c-57 0 -98 30 -121 90l-16 50c-6 26 -6 27 -10 54l-6 60c-4 283 38 379 168 379c100 0 161 -62 161 -164h96c0 87 -35 240 -253 240c-194 0 -278 -117 -278 -388c0 -161 28 -268 89 -331c46 -46 92 -69 139 -69c80 0 120 4 149 14
c104 42 159 138 159 278z" />
    <glyph glyph-name="D" unicode="D" horiz-adv-x="687" 
d="M624 395c0 245 -92 357 -295 357h-251v-752l309 2l22 2c161 46 215 144 215 391zM514 350l-2 -82l-4 -52l-10 -47c-13 -52 -22 -57 -86 -85c-40 -13 -43 -13 -105 -13h-130v610c218 0 263 -2 307 -85c24 -47 44 -105 30 -246z" />
    <glyph glyph-name="E" unicode="E" horiz-adv-x="578" 
d="M523 0v78h-346v277h321v77h-321v242h341v78h-440v-752h445z" />
    <glyph glyph-name="F" unicode="F" horiz-adv-x="510" 
d="M489 676v76h-411v-752h101v355h288v79h-288v242h310z" />
    <glyph glyph-name="G" unicode="G" horiz-adv-x="701" 
d="M627 0v393h-298v-77h201v-79c0 -33 -11 -68 -34 -105c-29 -47 -75 -71 -138 -71c-111 0 -175 63 -189 187c-3 27 -4 44 -5 128c0 232 55 321 183 321c105 0 171 -63 171 -160h99c0 143 -99 234 -254 234c-207 0 -300 -111 -300 -349v-64c0 -237 91 -376 246 -376
c119 0 197 40 235 122l7 -104h76z" />
    <glyph glyph-name="H" unicode="H" horiz-adv-x="691" 
d="M614 0v752h-102v-311h-333v311h-101v-752h101v366h333v-366h102z" />
    <glyph glyph-name="I" unicode="I" horiz-adv-x="261" 
d="M179 0v752h-101v-752h101z" />
    <glyph glyph-name="J" unicode="J" horiz-adv-x="498" 
d="M419 168v584h-97c0 -409 -3 -622 -8 -639c-14 -40 -36 -60 -65 -60h-31l-32 5l-34 11c-19 9 -30 31 -33 64l-1 99h-96l2 -81l4 -51c23 -84 84 -117 216 -117c103 0 175 76 175 185z" />
    <glyph glyph-name="K" unicode="K" horiz-adv-x="641" 
d="M631 0l-295 447l278 305h-116l-321 -361v361h-99v-752h99v271l93 104l242 -375h119z" />
    <glyph glyph-name="L" unicode="L" horiz-adv-x="563" 
d="M532 0v80h-355v672h-99v-752h454z" />
    <glyph glyph-name="M" unicode="M" horiz-adv-x="871" 
d="M791 0v752h-164l-196 -641l-187 641h-166v-752h97v709l205 -709h97l216 709v-709h98z" />
    <glyph glyph-name="N" unicode="N" horiz-adv-x="684" 
d="M607 0v752h-97l8 -645l-306 645h-134v-752h97l-9 664l313 -664h128z" />
    <glyph glyph-name="O" unicode="O" horiz-adv-x="691" 
d="M628 415l-5 77c0 7 -11 88 -13 93c-14 80 -91 164 -166 175l-56 8c-20 2 -53 3 -98 3c-119 0 -212 -123 -225 -297l-2 -100l2 -102c35 -222 109 -290 282 -290c212 0 289 118 281 433zM525 348l-7 -125c-14 -106 -69 -166 -150 -166c-142 0 -183 41 -202 216l-2 119
c0 140 12 197 51 246c30 39 61 58 92 58c33 0 55 -1 68 -3l33 -4c107 -20 122 -169 117 -341z" />
    <glyph glyph-name="P" unicode="P" horiz-adv-x="624" 
d="M307 752h-229v-752h99v316c256 0 374 31 396 139l10 49c9 179 -63 248 -276 248zM481 541c0 -99 -57 -148 -172 -148h-132v288c252 0 304 -27 304 -140z" />
    <glyph glyph-name="Q" unicode="Q" horiz-adv-x="691" 
d="M673 21l-102 69c40 60 61 155 61 278c0 35 -2 75 -5 118l-20 110c-33 105 -110 149 -196 172l-110 2c-149 0 -240 -142 -240 -376l4 -77c0 -206 96 -336 250 -336c56 0 154 8 208 48l96 -64zM527 365l-2 -54l-6 -53c-6 -37 -13 -74 -21 -112l-85 59l-55 -55l92 -68
c-32 -18 -72 -27 -120 -27c-112 0 -166 95 -166 299c-3 128 8 201 47 288c22 41 63 53 157 53c89 0 144 -68 157 -193z" />
    <glyph glyph-name="R" unicode="R" horiz-adv-x="689" 
d="M643 0c-32 31 -48 80 -48 149c0 165 -43 213 -162 226c127 31 166 87 166 197c0 117 -95 180 -272 180h-249v-752h97v334c304 0 304 0 322 -212l3 -59l7 -32l13 -31h123zM498 555c0 -101 -66 -150 -201 -150h-122v273l185 2c81 0 138 -49 138 -125z" />
    <glyph glyph-name="S" unicode="S" horiz-adv-x="631" 
d="M574 211c0 81 -36 139 -107 173l-196 64c-71 28 -106 66 -106 113c0 92 50 138 152 138c92 0 138 -49 138 -140h91c0 137 -85 212 -234 212c-150 0 -239 -83 -239 -225c0 -70 35 -122 104 -156l195 -64c70 -27 105 -65 105 -114c0 -102 -58 -155 -168 -155
c-109 0 -154 52 -154 181h-95l-1 -74c0 -37 19 -76 58 -116c42 -44 105 -66 190 -66c167 0 267 86 267 229z" />
    <glyph glyph-name="T" unicode="T" horiz-adv-x="573" 
d="M558 676v76h-541v-76h225v-676h104v676h212z" />
    <glyph glyph-name="U" unicode="U" horiz-adv-x="680" 
d="M602 752h-97c0 -362 -2 -557 -6 -584c-14 -67 -80 -110 -166 -110c-117 0 -153 47 -153 188v506h-99v-396c0 -266 5 -302 113 -345c44 -18 87 -27 128 -27c162 5 230 42 269 150c5 12 7 24 7 36l4 76v506z" />
    <glyph glyph-name="V" unicode="V" horiz-adv-x="619" 
d="M616 752h-99l-205 -648l-201 648h-106l246 -752h120z" />
    <glyph glyph-name="W" unicode="W" horiz-adv-x="933" 
d="M917 752h-97l-140 -631l-155 631h-112l-157 -637l-138 637h-104l189 -752h109l155 613l157 -613h106z" />
    <glyph glyph-name="X" unicode="X" horiz-adv-x="583" 
d="M598 0l-249 391l237 361h-114l-179 -285l-175 285h-120l234 -363l-246 -389h115l189 314l188 -314h120z" />
    <glyph glyph-name="Y" unicode="Y" horiz-adv-x="592" 
d="M609 752h-106l-206 -369l-196 369h-118l261 -461v-291h102v291z" />
    <glyph glyph-name="Z" unicode="Z" horiz-adv-x="520" 
d="M496 0v80h-364l357 596v76h-443l-1 -78h340l-359 -596v-78h470z" />
    <glyph glyph-name="bracketleft" unicode="[" horiz-adv-x="375" 
d="M343 -211v61h-113v841h111v61h-209v-963h211z" />
    <glyph glyph-name="backslash" unicode="\" horiz-adv-x="327" 
d="M380 -92l-315 862h-65l316 -862h64z" />
    <glyph glyph-name="bracketright" unicode="]" horiz-adv-x="375" 
d="M243 -211v963h-209v-61h111v-841h-113v-61h211z" />
    <glyph glyph-name="asciicircum" unicode="^" horiz-adv-x="1180" 
d="M938 439l-295 274h-108l-293 -274h104l244 206l242 -206h106z" />
    <glyph glyph-name="underscore" unicode="_" 
d="M590 -233v69h-590v-69h590z" />
    <glyph glyph-name="grave" unicode="`" 
d="M366 623l-98 133h-104l144 -133h58z" />
    <glyph glyph-name="a" unicode="a" horiz-adv-x="525" 
d="M503 0v59c-42 -5 -56 5 -56 39c0 272 -15 420 -45 444s-68 36 -115 36c-127 0 -161 -17 -200 -78c-6 -15 -9 -27 -10 -35l-8 -53h88c0 61 32 102 80 102l54 -4l37 -12c18 -8 19 -12 26 -73l-1 -36c-2 -18 -10 -29 -25 -36l-21 -9l-131 -38c-92 -35 -127 -79 -127 -162
c0 -94 58 -159 142 -159c74 0 133 31 171 89c7 -51 32 -78 72 -78zM355 191c0 -74 -54 -137 -118 -137s-92 33 -92 101c0 59 30 78 120 106c43 13 73 27 90 42v-112z" />
    <glyph glyph-name="b" unicode="b" horiz-adv-x="565" 
d="M514 293l-3 70c-13 129 -86 211 -188 211c-86 0 -137 -22 -159 -70v248h-93v-752h88v70c23 -53 79 -81 161 -81c118 0 194 120 194 304zM411 273c-9 -166 -36 -214 -118 -214s-123 48 -133 157l-2 90c0 139 36 200 120 200c101 0 129 -45 133 -233z" />
    <glyph glyph-name="c" unicode="c" horiz-adv-x="544" 
d="M481 197h-89c0 -83 -45 -142 -111 -142c-97 0 -126 67 -126 228c0 159 34 225 122 225c66 0 110 -49 110 -121h90c0 121 -72 190 -196 190c-151 0 -227 -97 -227 -292c0 -51 4 -93 12 -125c53 -153 78 -175 236 -175c101 0 179 92 179 212z" />
    <glyph glyph-name="d" unicode="d" horiz-adv-x="563" 
d="M493 1v751h-93v-248c-22 49 -71 71 -157 71c-118 0 -191 -112 -191 -270c0 -159 51 -286 121 -303l45 -7c11 -3 30 -4 57 -4c46 0 113 32 131 79v-69h87zM408 285l-4 -94c-13 -86 -56 -132 -126 -132c-64 0 -110 46 -119 118l-6 47c-2 94 8 281 102 281
c123 0 153 -44 153 -220z" />
    <glyph glyph-name="e" unicode="e" horiz-adv-x="518" 
d="M231 578c-75 0 -180 -59 -180 -283c0 -219 64 -310 217 -310c122 0 198 78 198 204h-93c0 -68 -41 -139 -80 -139c-119 0 -146 43 -146 227h319c9 234 -41 301 -235 301zM373 342h-226c0 115 41 172 122 172c73 0 104 -51 104 -172z" />
    <glyph glyph-name="f" unicode="f" horiz-adv-x="307" 
d="M290 498v65h-99l-1 65c0 37 17 59 46 59l31 -1l23 -4v70l-78 3c-66 0 -114 -40 -114 -96l-4 -96h-92v-65h92v-498h97v498h99z" />
    <glyph glyph-name="g" unicode="g" horiz-adv-x="560" 
d="M494 25v538h-90v-67c-23 51 -72 78 -141 78s-117 -17 -141 -50c-55 -70 -70 -120 -70 -239c0 -186 69 -292 188 -292c77 0 130 25 161 75l1 -70c0 -55 -45 -120 -115 -120c-75 0 -114 25 -121 71h-92c0 -84 82 -138 209 -138c123 0 211 86 211 214zM275 61
c-69 0 -109 44 -120 129c-2 17 -3 53 -3 106c0 135 36 212 101 212c94 0 109 -22 136 -94c8 -46 12 -75 13 -85c10 -191 -27 -268 -127 -268z" />
    <glyph glyph-name="h" unicode="h" horiz-adv-x="556" 
d="M486 0c0 337 -16 517 -47 540s-66 35 -104 35c-77 0 -143 -28 -171 -73v250h-93v-752h93c0 290 13 447 38 470s56 34 93 34c66 0 97 -30 97 -96v-408h94z" />
    <glyph glyph-name="i" unicode="i" horiz-adv-x="235" 
d="M166 650v102h-97v-102h97zM166 0v563h-97v-563h97z" />
    <glyph glyph-name="j" unicode="j" horiz-adv-x="244" 
d="M177 652v100h-92v-100h92zM177 -53v616h-92c0 -435 -4 -657 -12 -666c-11 -12 -31 -18 -61 -18v-67c114 0 165 41 165 135z" />
    <glyph glyph-name="k" unicode="k" horiz-adv-x="500" 
d="M512 0l-215 350l199 213h-109l-225 -256v445h-91v-752h91v199l70 78l167 -277h113z" />
    <glyph glyph-name="l" unicode="l" horiz-adv-x="230" 
d="M162 0v752h-93v-752h93z" />
    <glyph glyph-name="m" unicode="m" horiz-adv-x="880" 
d="M813 0c0 337 -15 517 -44 540s-75 34 -140 34s-116 -27 -155 -82c-22 55 -70 84 -140 84c-87 0 -155 -46 -176 -82v69h-86v-563h90c0 292 14 450 41 473c27 22 58 33 93 33c66 0 98 -38 98 -115v-391h95c6 189 10 336 10 338c7 80 17 125 30 135c27 21 60 32 99 32
c66 0 88 -29 88 -116v-389h97z" />
    <glyph glyph-name="n" unicode="n" horiz-adv-x="556" 
d="M486 0c0 327 -10 503 -31 528c-25 31 -71 46 -140 46s-121 -27 -156 -82v71h-88v-563h93c0 291 12 448 36 471c23 22 54 33 93 33c80 0 99 -40 99 -92v-412h94z" />
    <glyph glyph-name="o" unicode="o" horiz-adv-x="569" 
d="M518 281l-4 97c-11 109 -47 176 -101 183l-85 13c-16 2 -44 3 -83 3c-67 0 -146 -58 -171 -129l-16 -56v-22c0 -3 -3 -14 -4 -18c0 -261 34 -366 229 -366c165 0 235 88 235 295zM382 100c-21 -31 -54 -47 -99 -47c-96 0 -131 61 -131 226c0 166 37 231 130 231
c105 0 119 -57 136 -174c0 -154 -7 -197 -36 -236z" />
    <glyph glyph-name="p" unicode="p" horiz-adv-x="563" 
d="M512 257c0 178 -45 291 -121 305l-43 8c-92 14 -167 -18 -186 -80v73h-91v-752h95v250c33 -50 83 -72 166 -72c114 0 180 98 180 268zM411 268c-7 -157 -38 -211 -123 -211c-86 0 -126 68 -126 213c4 181 32 236 126 236s123 -70 123 -238z" />
    <glyph glyph-name="q" unicode="q" horiz-adv-x="563" 
d="M492 -189v752h-91v-73c-20 56 -76 86 -163 86c-120 0 -187 -106 -187 -297s63 -290 178 -290c76 0 139 27 167 72v-250h96zM401 283c0 -151 -38 -226 -115 -226c-99 0 -135 57 -135 215c0 41 2 77 5 95l13 55c23 63 45 83 92 83c114 -12 140 -41 140 -222z" />
    <glyph glyph-name="r" unicode="r" horiz-adv-x="343" 
d="M350 488v84c-94 12 -166 -26 -192 -101v92h-86v-563h92c0 255 3 394 9 416c10 29 26 48 48 56l42 16c21 7 23 7 47 8c11 0 24 -3 40 -8z" />
    <glyph glyph-name="s" unicode="s" horiz-adv-x="523" 
d="M471 163c0 60 -19 99 -57 117l-53 21l-135 43c-51 21 -62 31 -73 64l-1 35c0 38 49 69 110 69c41 0 104 -16 104 -98h87c0 106 -67 165 -190 165c-131 0 -199 -58 -199 -168c0 -55 27 -97 81 -124l151 -49c55 -20 82 -47 82 -82c0 -66 -41 -100 -124 -100
c-76 0 -109 36 -109 114h-92c0 -123 66 -185 197 -185c142 0 221 64 221 178z" />
    <glyph glyph-name="t" unicode="t" horiz-adv-x="290" 
d="M283 -8v69l-40 -2c-50 0 -66 14 -66 56v381h106v67h-106v150h-92v-150h-90v-67h90c0 -311 14 -474 41 -489c24 -11 31 -12 71 -17z" />
    <glyph glyph-name="u" unicode="u" horiz-adv-x="556" 
d="M479 0v563h-94c0 -284 -12 -439 -37 -466c-27 -29 -56 -44 -87 -44c-58 0 -95 30 -95 76v434h-96c0 -337 12 -517 36 -541s59 -36 105 -36c87 0 149 26 181 86v-72h87z" />
    <glyph glyph-name="v" unicode="v" horiz-adv-x="503" 
d="M484 563h-99l-134 -442l-131 442h-101l179 -563h102z" />
    <glyph glyph-name="w" unicode="w" horiz-adv-x="786" 
d="M762 563h-94l-112 -450l-116 450h-94l-104 -450l-122 450h-95l169 -563h96l102 436l118 -436h92z" />
    <glyph glyph-name="x" unicode="x" horiz-adv-x="474" 
d="M484 0l-191 297l177 266h-103l-132 -204l-126 204h-107l175 -272l-186 -291h103l138 229l143 -229h109z" />
    <glyph glyph-name="y" unicode="y" horiz-adv-x="523" 
d="M505 563h-97l-145 -454l-143 454h-99l194 -567c-20 -43 -32 -68 -37 -75c-21 -27 -40 -40 -58 -40c-19 0 -35 1 -46 3l-30 9v-73l34 -6c129 -5 165 13 222 161z" />
    <glyph glyph-name="z" unicode="z" horiz-adv-x="457" 
d="M429 0v74h-298l291 424v65h-383v-72h274l-286 -419v-72h402z" />
    <glyph glyph-name="braceleft" unicode="{" 
d="M500 -201v72l-56 2c-56 0 -85 33 -85 96l2 143c0 93 -26 118 -119 148c90 22 118 59 118 158l2 123c0 93 29 100 89 106l49 1v73l-88 -2c-118 -7 -151 -43 -151 -172c0 -233 -18 -250 -164 -250v-74l58 -3c79 -8 90 -27 106 -106l1 -153c0 -139 44 -162 238 -162z" />
    <glyph glyph-name="bar" unicode="|" 
d="M339 -234v998h-85v-998h85z" />
    <glyph glyph-name="braceright" unicode="}" 
d="M496 223v74l-59 2c-81 11 -105 34 -105 113l-2 161c0 95 -54 147 -141 147l-97 1v-73l50 -2c59 0 90 -33 90 -96l-1 -142c0 -96 25 -118 117 -148c-89 -31 -117 -55 -117 -150v-146c0 -68 -16 -82 -87 -91l-52 -2v-72l98 3c92 0 142 52 142 148v160c7 74 40 107 108 111z
" />
    <glyph glyph-name="asciitilde" unicode="~" horiz-adv-x="1180" 
d="M938 680h-87c0 -81 -30 -139 -105 -139c-37 0 -70 12 -99 36l-82 67c-53 35 -74 37 -129 35l-44 -5l-44 -11c-69 -25 -108 -92 -108 -190l87 1c0 116 67 137 106 137c35 0 67 -12 98 -35l81 -69c39 -23 87 -35 144 -35c112 0 182 80 182 208z" />
    <glyph glyph-name="quotesinglbase" unicode="&#x201a;" horiz-adv-x="262" 
d="M199 0v104h-107v-104h52l-4 -35l-8 -21c-9 -23 -22 -36 -40 -40v-47c70 12 107 77 107 143z" />
    <glyph glyph-name="florin" unicode="&#x192;" horiz-adv-x="588" 
d="M583 742l-46 13l-73 4c-63 0 -126 -57 -156 -162c-3 -11 -12 -50 -26 -118h-140v-65h129l-59 -324l-26 -123c-20 -56 -41 -84 -63 -84c-20 0 -41 1 -59 5l-35 8l-21 -68l47 -12c12 -2 16 -3 64 -4c84 0 144 63 169 177l81 425h151v65h-141l13 79c16 79 50 129 88 129
l50 -4l33 -9z" />
    <glyph glyph-name="quotedblbase" unicode="&#x201e;" horiz-adv-x="459" 
d="M365 0v104h-104v-104h51l-4 -32l-6 -25c-9 -22 -22 -35 -41 -39v-47c59 8 104 70 104 143zM199 0v104h-107v-104h52l-4 -35l-8 -21c-9 -23 -22 -36 -40 -40v-47c70 12 107 77 107 143z" />
    <glyph glyph-name="ellipsis" unicode="&#x2026;" horiz-adv-x="1180" 
d="M1035 0v104h-106v-104h106zM641 0v104h-106v-104h106zM249 0v104h-106v-104h106z" />
    <glyph glyph-name="dagger" unicode="&#x2020;" 
d="M535 467v70h-194v215h-92v-215h-194v-70h194v-547h92v547h194z" />
    <glyph glyph-name="daggerdbl" unicode="&#x2021;" 
d="M527 122v72h-186v281h186v71h-186v206h-92v-206h-189v-71h189v-281h-189v-71h189v-203h92v203z" />
    <glyph glyph-name="circumflex" unicode="&#x2c6;" 
d="M442 623l-99 133h-96l-100 -133h58l90 80l90 -80h57z" />
    <glyph glyph-name="perthousand" unicode="&#x2030;" horiz-adv-x="1204" 
d="M1148 188c0 109 -56 179 -143 179l-59 1c-69 0 -121 -81 -121 -181c0 -111 45 -187 160 -187c106 0 163 65 163 188zM1067 184c0 -83 -28 -124 -84 -124c-69 0 -85 42 -72 184c14 53 30 64 91 64c43 0 65 -43 65 -124zM769 188c-8 136 -45 180 -183 180
c-87 0 -139 -68 -139 -181c0 -123 54 -187 158 -187c107 0 164 66 164 188zM687 184c0 -84 -27 -124 -90 -124c-52 0 -72 35 -72 129c0 80 29 119 89 119c51 0 73 -38 73 -124zM378 564c0 116 -57 179 -163 179s-160 -61 -160 -181c0 -123 53 -185 159 -185
c107 0 164 66 164 187zM218 437c-61 0 -83 35 -83 107c0 86 24 139 63 139c46 0 72 -10 80 -31l15 -46c10 -94 0 -169 -75 -169zM643 758h-67l-401 -772h69z" />
    <glyph glyph-name="Scaron" unicode="&#x160;" horiz-adv-x="631" 
d="M460 973h-58l-89 -80l-91 80h-57l99 -133h97zM574 211c0 81 -36 139 -107 173l-196 64c-71 28 -106 66 -106 113c0 92 50 138 152 138c92 0 138 -49 138 -140h91c0 137 -85 212 -234 212c-150 0 -239 -83 -239 -225c0 -70 35 -122 104 -156l195 -64
c70 -27 105 -65 105 -114c0 -102 -58 -155 -168 -155c-109 0 -154 52 -154 181h-95l-1 -74c0 -37 19 -76 58 -116c42 -44 105 -66 190 -66c167 0 267 86 267 229z" />
    <glyph glyph-name="guilsinglleft" unicode="&#x2039;" horiz-adv-x="324" 
d="M251 92v90l-115 99l115 100v90l-175 -153v-72z" />
    <glyph glyph-name="OE" unicode="&#x152;" horiz-adv-x="1008" 
d="M952 0v78h-348v277h320v77h-320v242h344v78h-442v-64c-49 68 -82 77 -179 82c-189 0 -263 -116 -267 -392l5 -84c4 -165 78 -287 183 -304l45 -5c16 -2 37 -3 62 -3c59 0 117 31 151 82v-64h446zM506 242c0 -118 -45 -185 -119 -185c-138 0 -181 19 -212 147
c-5 18 -7 40 -7 66l-4 22c0 207 6 267 33 325c33 69 52 78 179 78c86 0 130 -59 130 -175v-278z" />
    <glyph glyph-name="quoteleft" unicode="&#x2018;" horiz-adv-x="288" 
d="M199 523v104h-53c0 55 19 89 53 96v47c-61 -7 -107 -69 -107 -143v-104h107z" />
    <glyph glyph-name="quoteright" unicode="&#x2019;" horiz-adv-x="288" 
d="M199 648v104h-107v-102h52c0 -53 -20 -90 -52 -97v-47c65 14 107 70 107 142z" />
    <glyph glyph-name="quotedblleft" unicode="&#x201c;" horiz-adv-x="459" 
d="M365 523v102h-51c0 60 18 94 51 98v47c-62 -7 -104 -64 -104 -143v-104h104zM199 523v102h-53l1 33l7 25c9 22 24 35 45 40v47c-61 -7 -107 -69 -107 -143v-104h107z" />
    <glyph glyph-name="quotedblright" unicode="&#x201d;" horiz-adv-x="459" 
d="M365 648v104h-104v-102h51l-4 -32l-6 -25c-9 -23 -22 -36 -41 -40v-47c63 15 104 73 104 142zM199 648v104h-107v-102h52c0 -53 -20 -90 -52 -97v-47c65 14 107 70 107 142z" />
    <glyph glyph-name="bullet" unicode="&#x2022;" horiz-adv-x="295" 
d="M222 371c0 41 -36 62 -75 62c-42 0 -76 -26 -76 -62c0 -37 31 -63 76 -63c43 0 75 27 75 63z" />
    <glyph glyph-name="endash" unicode="&#x2013;" horiz-adv-x="1180" 
d="M1181 245l-3 71h-1178l2 -71h1179z" />
    <glyph glyph-name="emdash" unicode="&#x2014;" 
d="M590 245v71h-590v-71h590z" />
    <glyph glyph-name="tilde" unicode="&#x2dc;" 
d="M435 740h-41c-6 -21 -17 -32 -39 -32c-11 0 -25 2 -40 6c-31 9 -57 13 -78 13c-34 0 -66 -36 -86 -94h45c11 23 23 32 41 32l83 -18l33 -3c41 0 75 39 82 96z" />
    <glyph glyph-name="trademark" unicode="&#x2122;" horiz-adv-x="982" 
d="M809 449v264h-86l-80 -190l-87 190h-89v-264h58v217l99 -217h33l96 217v-217h56zM401 674v39h-263v-39h99v-225h65v225h99z" />
    <glyph glyph-name="scaron" unicode="&#x161;" horiz-adv-x="523" 
d="M410 768h-58l-90 -80l-90 80h-58l100 -133h96zM471 163c0 60 -19 99 -57 117l-53 21l-135 43c-51 21 -62 31 -73 64l-1 35c0 38 49 69 110 69c41 0 104 -16 104 -98h87c0 106 -67 165 -190 165c-131 0 -199 -58 -199 -168c0 -55 27 -97 81 -124l151 -49
c55 -20 82 -47 82 -82c0 -66 -41 -100 -124 -100c-76 0 -109 36 -109 114h-92c0 -123 66 -185 197 -185c142 0 221 64 221 178z" />
    <glyph glyph-name="guilsinglright" unicode="&#x203a;" horiz-adv-x="324" 
d="M251 244v72l-175 155v-90l113 -102l-113 -97v-90z" />
    <glyph glyph-name="oe" unicode="&#x153;" horiz-adv-x="855" 
d="M615 575c-85 0 -137 -24 -168 -77c-47 58 -99 80 -184 80c-126 0 -212 -81 -212 -285s69 -307 206 -307c96 0 156 26 188 80c41 -58 76 -81 180 -81c99 0 173 86 173 203h-88c0 -80 -42 -136 -103 -136c-65 0 -97 31 -109 98c0 1 -3 10 -4 12v115h306
c7 204 -51 298 -185 298zM708 342h-215c12 136 31 172 106 172c76 0 86 -25 109 -135v-37zM262 51c-75 0 -112 67 -112 207c0 125 7 166 35 210c22 30 52 45 89 45c92 0 127 -52 127 -190c0 -223 -23 -272 -139 -272z" />
    <glyph glyph-name="Ydieresis" unicode="&#x178;" horiz-adv-x="592" 
d="M435 845v81h-87v-81h87zM247 845v81h-89v-81h89zM609 752h-106l-206 -369l-196 369h-118l261 -461v-291h102v291z" />
    <glyph glyph-name="exclamdown" unicode="&#xa1;" horiz-adv-x="307" 
d="M203 650v102h-99v-102h99zM208 0c0 239 -1 253 -10 332l-16 234h-58l-23 -297l-2 -54v-215h109z" />
    <glyph glyph-name="cent" unicode="&#xa2;" horiz-adv-x="588" 
d="M511 209h-93c0 -90 -39 -143 -112 -143c-72 0 -109 45 -121 147l-2 87c0 152 36 218 121 218c70 0 103 -49 111 -120h91c0 111 -51 168 -165 184v139h-76v-141c-130 -15 -181 -103 -181 -308c0 -168 70 -272 184 -272v-156h75v158c97 0 168 89 168 207z" />
    <glyph glyph-name="sterling" unicode="&#xa3;" horiz-adv-x="588" 
d="M569 31l-32 69c-30 -20 -55 -28 -100 -30c-18 0 -46 4 -84 12s-67 12 -86 12c-22 0 -45 -3 -68 -9l-35 -10l-33 -14c26 21 47 39 63 55l30 34l21 33c15 25 23 46 23 65l-6 52l-13 42h164v45h-188c-39 42 -62 106 -62 173c0 71 57 124 133 124c79 0 141 -36 149 -95l7 -62
h94c0 149 -83 229 -231 229c-173 0 -255 -105 -255 -183c0 -82 17 -134 60 -186h-86v-45h111l20 -47c5 -13 7 -35 7 -66c0 -60 -54 -138 -138 -182l51 -65c40 29 60 34 97 40c50 4 63 5 142 -16c47 -13 84 -19 113 -19c39 0 92 18 132 44z" />
    <glyph glyph-name="currency" unicode="&#xa4;" horiz-adv-x="714" 
d="M670 209l-117 100c32 33 46 79 46 142c0 33 -15 67 -46 104l117 101l-48 39l-117 -99c-45 27 -87 41 -126 41l-54 -3l-46 -8l-31 -12l-36 -18l-120 99l-46 -39l120 -101c-34 -36 -48 -76 -48 -140c0 -33 16 -69 48 -106l-120 -100l46 -39l120 100c43 -24 68 -35 147 -41
c47 0 106 16 146 41l117 -100zM533 436c0 -83 -78 -151 -173 -151c-96 0 -177 68 -177 148c0 78 83 147 176 147s174 -67 174 -144z" />
    <glyph glyph-name="yen" unicode="&#xa5;" horiz-adv-x="588" 
d="M607 742h-107l-203 -353l-193 353h-116l148 -250h-119v-49h149l49 -83h-198v-47h227v-313h102v313l227 -1v48h-200l51 82l149 1v49h-119z" />
    <glyph glyph-name="brokenbar" unicode="&#xa6;" 
d="M339 328v371h-85v-371h85zM339 -170v369h-85v-369h85z" />
    <glyph glyph-name="section" unicode="&#xa7;" 
d="M519 312c0 59 -27 106 -81 143l-152 73c-55 28 -82 57 -82 86c0 58 35 89 99 89c53 0 79 -32 79 -99h92c0 113 -57 167 -177 167c-110 0 -185 -56 -185 -137c0 -60 15 -94 56 -128c-65 -30 -97 -70 -97 -119c0 -106 12 -121 135 -191l69 -38c81 -39 107 -56 107 -104
c0 -53 -37 -82 -104 -82c-65 0 -87 24 -87 98h-92c4 -130 51 -170 208 -170c83 0 171 69 171 137c0 62 -17 102 -58 133c75 46 99 79 99 142zM433 301c0 -41 -21 -75 -62 -98c-218 117 -224 121 -212 205l13 26c10 16 26 30 47 41l68 -35c122 -66 146 -89 146 -139z" />
    <glyph glyph-name="dieresis" unicode="&#xa8;" 
d="M433 641v82h-87v-82h87zM244 641v82h-87v-82h87z" />
    <glyph glyph-name="copyright" unicode="&#xa9;" horiz-adv-x="982" 
d="M917 355c0 200 -188 359 -425 359c-229 0 -426 -179 -426 -300c2 -183 27 -249 169 -343c83 -54 167 -74 308 -74c182 0 374 177 374 358zM860 355c0 -172 -165 -312 -367 -312c-200 0 -370 145 -370 313c0 172 166 312 370 312c203 0 367 -140 367 -313zM696 279h-82
c-16 -48 -49 -86 -136 -86c-77 0 -118 76 -118 161c0 75 40 168 120 168c71 0 119 -30 127 -79h84c-8 81 -90 133 -208 133c-121 0 -215 -96 -215 -220c0 -129 90 -222 210 -222s203 55 218 145z" />
    <glyph glyph-name="ordfeminine" unicode="&#xaa;" horiz-adv-x="396" 
d="M375 357v41c-25 0 -39 2 -39 28c0 189 -12 292 -36 310c-25 17 -60 26 -105 26c-93 0 -142 -37 -142 -116h65c0 51 23 71 78 71c53 0 69 -17 69 -71c0 -24 -16 -41 -47 -51l-96 -27c-58 -23 -66 -39 -83 -87l-2 -43c0 -48 50 -89 112 -89c53 0 101 24 122 61
c0 -37 13 -55 38 -55zM268 492c0 -45 -35 -97 -87 -97s-72 21 -72 76c0 28 27 50 80 65c39 11 65 22 79 32v-76z" />
    <glyph glyph-name="guillemotleft" unicode="&#xab;" horiz-adv-x="569" 
d="M493 92v90l-113 99l113 100v90l-174 -153v-72zM251 92v90l-115 99l115 100v90l-177 -153v-72z" />
    <glyph glyph-name="logicalnot" unicode="&#xac;" horiz-adv-x="982" 
d="M837 176v243h-692v-67h614v-176h78z" />
    <glyph glyph-name="registered" unicode="&#xae;" horiz-adv-x="982" 
d="M917 355c0 200 -188 359 -425 359c-229 0 -426 -179 -426 -300c2 -183 27 -249 169 -343c83 -54 167 -74 308 -74c182 0 374 177 374 358zM860 354c0 -169 -167 -311 -367 -311c-199 0 -370 145 -370 313c0 154 169 312 318 312c127 0 159 -4 213 -30
c140 -71 206 -162 206 -284zM704 450c0 76 -68 116 -201 116h-184v-408h94v174h90l96 -174h102l-106 186c71 17 109 51 109 106zM610 449c0 -47 -44 -71 -94 -71l-103 2v136l13 2c135 0 184 -14 184 -69z" />
    <glyph glyph-name="macron" unicode="&#xaf;" 
d="M590 693v71h-590v-71h590z" />
    <glyph glyph-name="degree" unicode="&#xb0;" horiz-adv-x="472" 
d="M393 593c0 75 -70 135 -159 135c-92 0 -161 -58 -161 -135c0 -76 71 -136 161 -136c84 0 159 63 159 136zM330 593c0 -45 -44 -84 -95 -84c-52 0 -98 39 -98 84c0 55 56 82 97 82c53 0 96 -38 96 -82z" />
    <glyph glyph-name="plusminus" unicode="&#xb1;" horiz-adv-x="982" 
d="M837 349v67h-305v166h-80v-166h-307v-67h307v-167h80v167h305zM837 15v67h-692v-67h692z" />
    <glyph glyph-name="twosuperior" unicode="&#xb2;" horiz-adv-x="387" 
d="M348 297v47h-244c9 47 56 97 126 133l58 36c39 33 58 69 58 109c0 83 -58 128 -162 128c-95 0 -140 -48 -140 -152h62c0 79 23 107 85 107c57 0 85 -30 85 -91c0 -30 -21 -61 -62 -92l-116 -83c-41 -39 -61 -86 -61 -142h311z" />
    <glyph glyph-name="threesuperior" unicode="&#xb3;" horiz-adv-x="387" 
d="M348 441c0 48 -35 80 -101 94c59 16 83 46 83 106c0 59 -64 108 -125 108c-114 0 -166 -42 -166 -134h65c0 60 22 91 64 91c76 0 97 -19 97 -87c0 -48 -36 -68 -120 -68v-41l5 2c89 0 132 -29 132 -87c0 -55 -28 -93 -99 -93c-63 0 -89 30 -89 100h-65
c0 -95 53 -144 157 -144c108 0 162 51 162 153z" />
    <glyph glyph-name="acute" unicode="&#xb4;" 
d="M426 756h-104l-97 -135h58z" />
    <glyph glyph-name="paragraph" unicode="&#xb6;" 
d="M553 680v43c-253 0 -402 -15 -447 -46c-46 -31 -69 -68 -69 -112c0 -86 47 -155 162 -176l55 -6v-383h65v680h100v-680h62v680h72z" />
    <glyph glyph-name="periodcentered" unicode="&#xb7;" horiz-adv-x="696" 
d="M517 370c0 80 -76 145 -171 145c-97 0 -168 -59 -168 -140c0 -84 73 -147 169 -147c94 0 170 63 170 142z" />
    <glyph glyph-name="cedilla" unicode="&#xb8;" 
d="M438 -136c0 56 -44 87 -124 87v49h-44v-96c55 5 88 -11 88 -44c0 -24 -24 -38 -63 -38l-39 2l-67 10v-51l69 -10l59 -2c49 0 92 17 103 40l14 31c3 7 4 15 4 22z" />
    <glyph glyph-name="onesuperior" unicode="&#xb9;" horiz-adv-x="387" 
d="M242 297v453h-51c0 -54 -48 -84 -136 -84v-39h124v-330h63z" />
    <glyph glyph-name="ordmasculine" unicode="&#xba;" horiz-adv-x="426" 
d="M390 555c0 140 -56 206 -175 206c-115 0 -176 -66 -176 -191l3 -68c12 -121 83 -153 173 -153c123 0 175 61 175 206zM314 555c0 -121 -27 -160 -110 -160c-63 0 -91 49 -91 145c0 129 26 174 99 174c78 0 102 -39 102 -159z" />
    <glyph glyph-name="guillemotright" unicode="&#xbb;" horiz-adv-x="569" 
d="M493 246v72l-174 153v-90l112 -100l-112 -99v-90zM251 246v72l-177 153v-90l115 -100l-115 -99v-90z" />
    <glyph glyph-name="onequarter" unicode="&#xbc;" horiz-adv-x="938" 
d="M904 107v41h-53v274h-53l-208 -274v-41h203v-107h58v107h53zM798 363l-5 -215h-152zM761 758h-72l-517 -772h72zM235 324v424h-51c0 -52 -45 -80 -129 -80v-35h120v-309h60z" />
    <glyph glyph-name="onehalf" unicode="&#xbd;" horiz-adv-x="938" 
d="M902 0v43h-236c4 33 26 62 66 88l107 69c38 31 57 66 57 103c0 77 -56 121 -153 121c-91 0 -134 -46 -134 -143h59c0 69 23 100 75 100c59 0 89 -28 89 -84c0 -28 -20 -57 -59 -86l-110 -77c-41 -37 -59 -77 -59 -134h298zM761 758h-72l-517 -772h72zM235 324v424h-51
c0 -52 -45 -80 -129 -80v-35h120v-309h60z" />
    <glyph glyph-name="threequarters" unicode="&#xbe;" horiz-adv-x="938" 
d="M904 107v41h-53v274h-53l-208 -274v-41h203v-107h58v107h53zM798 363l-5 -215h-152zM761 758h-72l-517 -772h72zM332 459c0 49 -27 74 -95 88c52 12 79 46 79 101c0 58 -59 99 -141 99c-86 0 -136 -46 -136 -126h60c0 58 24 85 76 85c54 0 79 -24 79 -78
c0 -34 -23 -57 -64 -62l-50 -3v-40c95 0 129 -20 129 -77c0 -60 -31 -90 -94 -90c-59 0 -83 27 -83 93h-63c0 -82 21 -106 106 -129c11 -3 30 -4 74 -4c74 0 123 57 123 143z" />
    <glyph glyph-name="questiondown" unicode="&#xbf;" horiz-adv-x="585" 
d="M375 650v102h-99v-102h99zM530 219h-97c0 -102 -45 -165 -118 -165c-79 0 -124 44 -124 122c0 49 13 76 56 127l46 48c31 33 51 61 61 84l12 33l5 64v31h-93c0 -96 0 -97 -48 -153l-93 -97c-33 -43 -50 -91 -50 -144c0 -97 91 -186 183 -186c41 0 76 3 105 9l64 14
c60 15 88 81 91 213z" />
    <glyph glyph-name="Agrave" unicode="&#xc0;" horiz-adv-x="650" 
d="M394 824l-97 133h-103l142 -133h58zM631 0l-246 752h-124l-242 -752h99l64 217h282l66 -217h101zM440 293h-235l117 395z" />
    <glyph glyph-name="Aacute" unicode="&#xc1;" horiz-adv-x="650" 
d="M457 957h-104l-97 -135h58zM631 0l-246 752h-124l-242 -752h99l64 217h282l66 -217h101zM440 293h-235l117 395z" />
    <glyph glyph-name="Acircumflex" unicode="&#xc2;" horiz-adv-x="650" 
d="M472 824l-99 133h-97l-99 -133h58l89 80l91 -80h57zM631 0l-246 752h-124l-242 -752h99l64 217h282l66 -217h101zM440 293h-235l117 395z" />
    <glyph glyph-name="Atilde" unicode="&#xc3;" horiz-adv-x="650" 
d="M466 941h-42c-9 -23 -19 -32 -39 -32c-11 0 -25 2 -40 6c-36 8 -62 12 -78 12c-35 0 -68 -36 -85 -93h43c12 23 24 32 43 32l39 -7c34 -9 60 -14 79 -14c37 0 69 38 80 96zM631 0l-246 752h-124l-242 -752h99l64 217h282l66 -217h101zM440 293h-235l117 395z" />
    <glyph glyph-name="Adieresis" unicode="&#xc4;" horiz-adv-x="650" 
d="M464 842v82h-89v-82h89zM274 842v82h-88v-82h88zM631 0l-246 752h-124l-242 -752h99l64 217h282l66 -217h101zM440 293h-235l117 395z" />
    <glyph glyph-name="Aring" unicode="&#xc5;" horiz-adv-x="650" 
d="M434 872c0 50 -51 91 -112 91c-60 0 -111 -44 -111 -95s51 -92 113 -92c64 0 110 41 110 96zM380 869c0 -26 -25 -46 -57 -46c-31 0 -55 20 -55 46c0 27 24 48 55 48c33 0 57 -18 57 -48zM631 0l-244 746h-129l-239 -746h99l64 217h282l66 -217h101zM440 293h-235
l117 395z" />
    <glyph glyph-name="AE" unicode="&#xc6;" horiz-adv-x="929" 
d="M873 0v78h-346v277h321v77h-321v242h341v78h-541l-341 -752h104l96 217h242v-217h445zM428 293h-206l170 381h36v-381z" />
    <glyph glyph-name="Ccedilla" unicode="&#xc7;" horiz-adv-x="666" 
d="M597 275h-97c0 -153 -52 -213 -180 -213c-57 0 -98 30 -121 90l-16 50c-6 26 -6 27 -10 54l-6 60c-4 283 38 379 169 379c100 0 160 -63 160 -164h96c0 87 -35 240 -253 240c-193 0 -278 -117 -278 -385c0 -304 102 -389 236 -401v-81c54 4 88 -10 88 -44
c0 -25 -21 -38 -62 -38l-39 2l-67 10v-51l70 -10c126 -5 178 10 178 106c0 44 -48 72 -124 72v32l50 3c138 31 206 126 206 289z" />
    <glyph glyph-name="Egrave" unicode="&#xc8;" horiz-adv-x="578" 
d="M375 824l-97 133h-103l144 -133h56zM523 0v78h-346v277h321v77h-321v242h341v78h-440v-752h445z" />
    <glyph glyph-name="Eacute" unicode="&#xc9;" horiz-adv-x="578" 
d="M438 957h-104l-97 -135h58zM523 0v78h-346v277h321v77h-321v242h341v78h-440v-752h445z" />
    <glyph glyph-name="Ecircumflex" unicode="&#xca;" horiz-adv-x="578" 
d="M454 824l-99 133h-97l-99 -133h58l90 80l89 -80h58zM523 0v78h-346v277h321v77h-321v242h341v78h-440v-752h445z" />
    <glyph glyph-name="Edieresis" unicode="&#xcb;" horiz-adv-x="578" 
d="M445 842v82h-87v-82h87zM256 842v82h-87v-82h87zM523 0v78h-346v277h321v77h-321v242h341v78h-440v-752h445z" />
    <glyph glyph-name="Igrave" unicode="&#xcc;" horiz-adv-x="261" 
d="M198 824l-97 133h-103l142 -133h58zM179 0v752h-101v-752h101z" />
    <glyph glyph-name="Iacute" unicode="&#xcd;" horiz-adv-x="261" 
d="M261 957h-104l-97 -135h58zM179 0v752h-101v-752h101z" />
    <glyph glyph-name="Icircumflex" unicode="&#xce;" horiz-adv-x="261" 
d="M276 824l-99 133h-97l-99 -133h58l90 80l90 -80h57zM179 0v752h-101v-752h101z" />
    <glyph glyph-name="Idieresis" unicode="&#xcf;" horiz-adv-x="261" 
d="M268 842v82h-89v-82h89zM78 842v82h-87v-82h87zM179 0v752h-101v-752h101z" />
    <glyph glyph-name="Eth" unicode="&#xd0;" horiz-adv-x="699" 
d="M634 395c0 248 -89 357 -293 357h-251v-313h-90v-71h90v-368l296 2c159 0 248 137 248 393zM526 413l-2 -108c0 -25 -2 -48 -6 -67l-17 -61c-24 -65 -57 -93 -119 -102l-63 -4h-130v297h176v71h-176v242c231 0 234 -1 287 -61c38 -49 50 -95 50 -207z" />
    <glyph glyph-name="Ntilde" unicode="&#xd1;" horiz-adv-x="684" 
d="M496 941h-42c-7 -21 -20 -32 -39 -32c-106 18 -106 18 -118 18c-35 0 -73 -40 -85 -93h44c12 23 24 32 41 32c10 0 23 -2 39 -7c33 -9 60 -14 81 -14c37 0 70 40 79 96zM607 0v752h-97l8 -645l-306 645h-134v-752h97l-9 664l313 -664h128z" />
    <glyph glyph-name="Ograve" unicode="&#xd2;" horiz-adv-x="691" 
d="M415 824l-96 133h-104l143 -133h57zM628 415l-5 77c0 7 -11 88 -13 93c-14 80 -91 164 -166 175l-56 8c-20 2 -53 3 -98 3c-119 0 -212 -123 -225 -297l-2 -100l2 -102c35 -222 109 -290 282 -290c212 0 289 118 281 433zM525 348l-7 -125c-14 -106 -69 -166 -150 -166
c-142 0 -183 41 -202 216l-2 119c0 140 12 197 51 246c30 39 61 58 92 58c33 0 55 -1 68 -3l33 -4c107 -20 122 -169 117 -341z" />
    <glyph glyph-name="Oacute" unicode="&#xd3;" horiz-adv-x="691" 
d="M477 957h-104l-97 -135h58zM628 415l-5 77c0 7 -11 88 -13 93c-14 80 -91 164 -166 175l-56 8c-20 2 -53 3 -98 3c-119 0 -212 -123 -225 -297l-2 -100l2 -102c35 -222 109 -290 282 -290c212 0 289 118 281 433zM525 348l-7 -125c-14 -106 -69 -166 -150 -166
c-142 0 -183 41 -202 216l-2 119c0 140 12 197 51 246c30 39 61 58 92 58c33 0 55 -1 68 -3l33 -4c107 -20 122 -169 117 -341z" />
    <glyph glyph-name="Ocircumflex" unicode="&#xd4;" horiz-adv-x="691" 
d="M493 824l-99 133h-97l-99 -133h58l90 80l89 -80h58zM628 415l-5 77c0 7 -11 88 -13 93c-14 80 -91 164 -166 175l-56 8c-20 2 -53 3 -98 3c-119 0 -212 -123 -225 -297l-2 -100l2 -102c35 -222 109 -290 282 -290c212 0 289 118 281 433zM525 348l-7 -125
c-14 -106 -69 -166 -150 -166c-142 0 -183 41 -202 216l-2 119c0 140 12 197 51 246c30 39 61 58 92 58c33 0 55 -1 68 -3l33 -4c107 -20 122 -169 117 -341z" />
    <glyph glyph-name="Otilde" unicode="&#xd5;" horiz-adv-x="691" 
d="M486 941h-41c-8 -24 -18 -32 -39 -32c-36 6 -117 18 -118 18c-35 0 -68 -36 -85 -93h44c11 23 23 32 42 32c10 0 27 -4 51 -11c25 -7 25 -7 64 -10c38 0 75 43 82 96zM628 415l-5 77c0 7 -11 88 -13 93c-14 80 -91 164 -166 175l-56 8c-20 2 -53 3 -98 3
c-119 0 -212 -123 -225 -297l-2 -100l2 -102c35 -222 109 -290 282 -290c212 0 289 118 281 433zM525 348l-7 -125c-14 -106 -69 -166 -150 -166c-142 0 -183 41 -202 216l-2 119c0 140 12 197 51 246c30 39 61 58 92 58c33 0 55 -1 68 -3l33 -4c107 -20 122 -169 117 -341z
" />
    <glyph glyph-name="Odieresis" unicode="&#xd6;" horiz-adv-x="691" 
d="M484 842v82h-88v-82h88zM295 842v82h-87v-82h87zM628 415l-5 77c0 7 -11 88 -13 93c-14 80 -91 164 -166 175l-56 8c-20 2 -53 3 -98 3c-119 0 -212 -123 -225 -297l-2 -100l2 -102c35 -222 109 -290 282 -290c212 0 289 118 281 433zM525 348l-7 -125
c-14 -106 -69 -166 -150 -166c-142 0 -183 41 -202 216l-2 119c0 140 12 197 51 246c30 39 61 58 92 58c33 0 55 -1 68 -3l33 -4c107 -20 122 -169 117 -341z" />
    <glyph glyph-name="multiply" unicode="&#xd7;" horiz-adv-x="982" 
d="M768 112l-220 187l215 182l-56 48l-215 -182l-221 187l-57 -49l220 -187l-217 -183l58 -48l217 183l220 -186z" />
    <glyph glyph-name="Oslash" unicode="&#xd8;" horiz-adv-x="691" 
d="M643 744l-53 27l-46 -68c-67 59 -94 67 -216 67c-200 0 -275 -135 -264 -452l7 -71c8 -57 22 -105 42 -145l-69 -94l53 -28l53 73c54 -55 105 -71 229 -71c166 0 251 123 251 379c0 133 -12 210 -49 293zM489 629l-310 -434l-7 48l-6 173l2 72l5 54
c21 100 76 154 157 154c80 0 120 -17 159 -67zM526 404c-8 -280 -37 -347 -166 -347c-83 0 -130 21 -157 72l309 434l9 -47z" />
    <glyph glyph-name="Ugrave" unicode="&#xd9;" horiz-adv-x="680" 
d="M408 824l-96 133h-104l142 -133h58zM602 752h-97c0 -362 -2 -557 -6 -584c-14 -67 -80 -110 -166 -110c-117 0 -153 47 -153 188v506h-99v-396c0 -266 5 -302 113 -345c44 -18 87 -27 128 -27c162 5 230 42 269 150c5 12 7 24 7 36l4 76v506z" />
    <glyph glyph-name="Uacute" unicode="&#xda;" horiz-adv-x="680" 
d="M470 957h-103l-97 -135h57zM602 752h-97c0 -362 -2 -557 -6 -584c-14 -67 -80 -110 -166 -110c-117 0 -153 47 -153 188v506h-99v-396c0 -266 5 -302 113 -345c44 -18 87 -27 128 -27c162 5 230 42 269 150c5 12 7 24 7 36l4 76v506z" />
    <glyph glyph-name="Ucircumflex" unicode="&#xdb;" horiz-adv-x="680" 
d="M486 824l-99 133h-97l-99 -133h58l90 80l89 -80h58zM602 752h-97c0 -362 -2 -557 -6 -584c-14 -67 -80 -110 -166 -110c-117 0 -153 47 -153 188v506h-99v-396c0 -266 5 -302 113 -345c44 -18 87 -27 128 -27c162 5 230 42 269 150c5 12 7 24 7 36l4 76v506z" />
    <glyph glyph-name="Udieresis" unicode="&#xdc;" horiz-adv-x="680" 
d="M477 842v82h-88v-82h88zM288 842v82h-87v-82h87zM602 752h-97c0 -362 -2 -557 -6 -584c-14 -67 -80 -110 -166 -110c-117 0 -153 47 -153 188v506h-99v-396c0 -266 5 -302 113 -345c44 -18 87 -27 128 -27c162 5 230 42 269 150c5 12 7 24 7 36l4 76v506z" />
    <glyph glyph-name="Yacute" unicode="&#xdd;" horiz-adv-x="592" 
d="M426 957h-104l-97 -135h58zM609 752h-106l-206 -369l-196 369h-118l261 -461v-291h102v291z" />
    <glyph glyph-name="Thorn" unicode="&#xde;" horiz-adv-x="624" 
d="M584 411c0 127 -64 188 -213 202c-22 3 -87 4 -194 4v135h-99v-752h99v182c309 0 407 52 407 229zM481 406c0 -99 -57 -149 -172 -149h-132v288c250 0 304 -22 304 -139z" />
    <glyph glyph-name="germandbls" unicode="&#xdf;" horiz-adv-x="566" 
d="M513 217c0 111 -33 171 -119 211c59 33 83 80 83 164c0 97 -79 166 -207 166c-133 0 -200 -78 -200 -233v-525h89c0 411 7 627 22 648c17 29 37 43 61 43c95 -2 145 -10 145 -133c0 -70 -42 -103 -129 -103v-66l54 1c62 0 102 -59 102 -151c0 -128 -21 -180 -71 -180h-36
l-21 3l-24 9l-15 9v-74c23 -13 59 -20 107 -20c84 0 159 79 159 231z" />
    <glyph glyph-name="agrave" unicode="&#xe0;" horiz-adv-x="525" 
d="M343 623l-96 133h-104l143 -133h57zM503 0v59c-42 -5 -56 5 -56 39c0 272 -15 420 -45 444s-68 36 -115 36c-127 0 -161 -17 -200 -78c-6 -15 -9 -27 -10 -35l-8 -53h88c0 61 32 102 80 102l54 -4l37 -12c18 -8 19 -12 26 -73l-1 -36c-2 -18 -10 -29 -25 -36l-21 -9
l-131 -38c-92 -35 -127 -79 -127 -162c0 -94 58 -159 142 -159c74 0 133 31 171 89c7 -51 32 -78 72 -78zM355 191c0 -74 -54 -137 -118 -137s-92 33 -92 101c0 59 30 78 120 106c43 13 73 27 90 42v-112z" />
    <glyph glyph-name="aacute" unicode="&#xe1;" horiz-adv-x="525" 
d="M406 756h-104l-97 -135h58zM503 0v59c-42 -5 -56 5 -56 39c0 272 -15 420 -45 444s-68 36 -115 36c-127 0 -161 -17 -200 -78c-6 -15 -9 -27 -10 -35l-8 -53h88c0 61 32 102 80 102l54 -4l37 -12c18 -8 19 -12 26 -73l-1 -36c-2 -18 -10 -29 -25 -36l-21 -9l-131 -38
c-92 -35 -127 -79 -127 -162c0 -94 58 -159 142 -159c74 0 133 31 171 89c7 -51 32 -78 72 -78zM355 191c0 -74 -54 -137 -118 -137s-92 33 -92 101c0 59 30 78 120 106c43 13 73 27 90 42v-112z" />
    <glyph glyph-name="acircumflex" unicode="&#xe2;" horiz-adv-x="525" 
d="M421 623l-99 133h-97l-99 -133h58l90 80l91 -80h56zM503 0v59c-42 -5 -56 5 -56 39c0 272 -15 420 -45 444s-68 36 -115 36c-127 0 -161 -17 -200 -78c-6 -15 -9 -27 -10 -35l-8 -53h88c0 61 32 102 80 102l54 -4l37 -12c18 -8 19 -12 26 -73l-1 -36
c-2 -18 -10 -29 -25 -36l-21 -9l-131 -38c-92 -35 -127 -79 -127 -162c0 -94 58 -159 142 -159c74 0 133 31 171 89c7 -51 32 -78 72 -78zM355 191c0 -74 -54 -137 -118 -137s-92 33 -92 101c0 59 30 78 120 106c43 13 73 27 90 42v-112z" />
    <glyph glyph-name="atilde" unicode="&#xe3;" horiz-adv-x="525" 
d="M415 740h-42c-7 -21 -20 -32 -39 -32c-12 0 -39 6 -52 10c-25 6 -46 9 -64 9c-35 0 -69 -36 -87 -94h44c6 19 23 32 43 32c11 0 28 -3 50 -10c24 -7 46 -11 65 -11c39 0 77 44 82 96zM503 0v59c-42 -5 -56 5 -56 39c0 272 -15 420 -45 444s-68 36 -115 36
c-127 0 -161 -17 -200 -78c-6 -15 -9 -27 -10 -35l-8 -53h88c0 61 32 102 80 102l54 -4l37 -12c18 -8 19 -12 26 -73l-1 -36c-2 -18 -10 -29 -25 -36l-21 -9l-131 -38c-92 -35 -127 -79 -127 -162c0 -94 58 -159 142 -159c74 0 133 31 171 89c7 -51 32 -78 72 -78zM355 191
c0 -74 -54 -137 -118 -137s-92 33 -92 101c0 59 30 78 120 106c43 13 73 27 90 42v-112z" />
    <glyph glyph-name="adieresis" unicode="&#xe4;" horiz-adv-x="525" 
d="M413 641v82h-89v-82h89zM223 641v82h-87v-82h87zM503 0v59c-42 -5 -56 5 -56 39c0 272 -15 420 -45 444s-68 36 -115 36c-127 0 -161 -17 -200 -78c-6 -15 -9 -27 -10 -35l-8 -53h88c0 61 32 102 80 102l54 -4l37 -12c18 -8 19 -12 26 -73l-1 -36c-2 -18 -10 -29 -25 -36
l-21 -9l-131 -38c-92 -35 -127 -79 -127 -162c0 -94 58 -159 142 -159c74 0 133 31 171 89c7 -51 32 -78 72 -78zM355 191c0 -74 -54 -137 -118 -137s-92 33 -92 101c0 59 30 78 120 106c43 13 73 27 90 42v-112z" />
    <glyph glyph-name="aring" unicode="&#xe5;" horiz-adv-x="525" 
d="M375 701c0 53 -48 94 -110 94c-61 0 -110 -43 -110 -96c0 -52 49 -93 112 -93c62 0 108 40 108 95zM322 699c0 -26 -25 -46 -57 -46c-34 0 -55 18 -55 47c0 28 23 47 57 47c33 0 55 -19 55 -48zM503 0v59c-42 -5 -56 5 -56 39c0 272 -15 420 -45 444s-68 36 -115 36
c-127 0 -161 -17 -200 -78c-6 -15 -9 -27 -10 -35l-8 -53h88c0 61 32 102 80 102l54 -4l37 -12c18 -8 19 -12 26 -73l-1 -36c-2 -18 -10 -29 -25 -36l-21 -9l-131 -38c-92 -35 -127 -79 -127 -162c0 -94 58 -159 142 -159c74 0 133 31 171 89c7 -51 32 -78 72 -78zM355 191
c0 -74 -54 -137 -118 -137s-92 33 -92 101c0 59 30 78 120 106c43 13 73 27 90 42v-112z" />
    <glyph glyph-name="ae" unicode="&#xe6;" horiz-adv-x="820" 
d="M582 576c-80 0 -119 -14 -161 -56c-42 45 -67 52 -139 58c-25 0 -45 -1 -60 -3l-43 -7c-41 -9 -70 -30 -83 -62l-13 -37c-7 -19 -10 -38 -10 -57h89c0 74 27 103 102 103c69 0 97 -30 97 -101c0 -31 -14 -53 -41 -65l-150 -49l-30 -11c-11 -5 -23 -13 -36 -25l-28 -29
c-21 -21 -23 -39 -25 -110c0 -74 66 -138 146 -138c76 0 133 28 190 95c41 -63 93 -96 152 -96c21 0 44 2 69 5l45 9c61 15 109 97 109 189h-89c0 -84 -41 -136 -108 -136c-74 0 -123 52 -123 124v71l3 29h320v27c7 178 -57 272 -183 272zM670 342h-223
c0 113 26 171 121 171c70 0 102 -53 102 -171zM358 197c0 -82 -50 -140 -118 -140s-91 25 -91 99c0 60 29 81 118 104c43 13 73 27 91 43v-106z" />
    <glyph glyph-name="ccedilla" unicode="&#xe7;" horiz-adv-x="544" 
d="M481 197h-89c0 -83 -45 -142 -111 -142c-98 0 -126 69 -126 229c0 159 35 224 122 224c66 0 110 -49 110 -121h90c0 121 -72 190 -196 190c-151 0 -227 -97 -227 -292c0 -146 48 -260 121 -285l34 -10c9 -3 20 -4 35 -4v-82l29 1c41 -6 59 -20 59 -44
c0 -27 -35 -39 -63 -39l-38 2l-67 10v-51l70 -10l59 -2l33 3l33 8c19 8 31 18 36 29l14 31c3 7 4 21 4 40c0 30 -39 69 -125 69v34c116 0 193 84 193 212z" />
    <glyph glyph-name="egrave" unicode="&#xe8;" horiz-adv-x="518" 
d="M343 623l-96 133h-104l143 -133h57zM231 578c-75 0 -180 -59 -180 -283c0 -219 64 -310 217 -310c122 0 198 78 198 204h-93c0 -68 -41 -139 -80 -139c-119 0 -146 43 -146 227h319c9 234 -41 301 -235 301zM373 342h-226c0 115 41 172 122 172c73 0 104 -51 104 -172z
" />
    <glyph glyph-name="eacute" unicode="&#xe9;" horiz-adv-x="518" 
d="M406 756h-104l-97 -135h58zM231 578c-75 0 -180 -59 -180 -283c0 -219 64 -310 217 -310c122 0 198 78 198 204h-93c0 -68 -41 -139 -80 -139c-119 0 -146 43 -146 227h319c9 234 -41 301 -235 301zM373 342h-226c0 115 41 172 122 172c73 0 104 -51 104 -172z" />
    <glyph glyph-name="ecircumflex" unicode="&#xea;" horiz-adv-x="518" 
d="M421 623l-99 133h-97l-99 -133h58l90 80l91 -80h56zM231 578c-75 0 -180 -59 -180 -283c0 -219 64 -310 217 -310c122 0 198 78 198 204h-93c0 -68 -41 -139 -80 -139c-119 0 -146 43 -146 227h319c9 234 -41 301 -235 301zM373 342h-226c0 115 41 172 122 172
c73 0 104 -51 104 -172z" />
    <glyph glyph-name="edieresis" unicode="&#xeb;" horiz-adv-x="518" 
d="M413 641v82h-89v-82h89zM223 641v82h-87v-82h87zM231 578c-75 0 -180 -59 -180 -283c0 -219 64 -310 217 -310c122 0 198 78 198 204h-93c0 -68 -41 -139 -80 -139c-119 0 -146 43 -146 227h319c9 234 -41 301 -235 301zM373 342h-226c0 115 41 172 122 172
c73 0 104 -51 104 -172z" />
    <glyph glyph-name="igrave" unicode="&#xec;" horiz-adv-x="235" 
d="M186 623l-96 133h-104l143 -133h57zM166 0v563h-97v-563h97z" />
    <glyph glyph-name="iacute" unicode="&#xed;" horiz-adv-x="235" 
d="M249 756h-104l-97 -135h58zM166 0v563h-97v-563h97z" />
    <glyph glyph-name="icircumflex" unicode="&#xee;" horiz-adv-x="235" 
d="M265 623l-99 133h-97l-98 -133h56l91 80l90 -80h57zM166 0v563h-97v-563h97z" />
    <glyph glyph-name="idieresis" unicode="&#xef;" horiz-adv-x="235" 
d="M256 641v82h-87v-82h87zM67 641v82h-88v-82h88zM166 0v563h-97v-563h97z" />
    <glyph glyph-name="eth" unicode="&#xf0;" horiz-adv-x="569" 
d="M517 266c0 169 -52 272 -195 379l139 68l-30 39l-157 -74c-25 15 -49 28 -73 39l-78 35l-26 -63l97 -46l-118 -57l28 -41l138 66l53 -38c19 -15 35 -30 46 -44c-28 11 -51 17 -70 17l-47 -4l-20 -4c-115 -47 -154 -117 -154 -283c0 -180 77 -269 234 -269
c161 0 233 86 233 280zM418 270c-4 -158 -40 -217 -135 -217s-128 54 -131 215c0 156 36 216 131 216c101 0 135 -53 135 -214z" />
    <glyph glyph-name="ntilde" unicode="&#xf1;" horiz-adv-x="556" 
d="M428 740h-41c-6 -23 -17 -32 -40 -32c-13 0 -30 3 -51 10c-22 6 -44 9 -65 9c-37 0 -69 -36 -86 -94h44c12 23 22 32 40 32c10 0 23 -2 40 -7c38 -10 38 -10 78 -14c40 0 81 46 81 96zM486 0c0 327 -10 503 -31 528c-25 31 -71 46 -140 46s-121 -27 -156 -82v71h-88v-563
h93c0 291 12 448 36 471c23 22 54 33 93 33c80 0 99 -40 99 -92v-412h94z" />
    <glyph glyph-name="ograve" unicode="&#xf2;" horiz-adv-x="569" 
d="M358 623l-97 133h-104l143 -133h58zM518 281l-4 97c-11 109 -47 176 -101 183l-85 13c-16 2 -44 3 -83 3c-67 0 -146 -58 -171 -129l-16 -56v-22c0 -3 -3 -14 -4 -18c0 -261 34 -366 229 -366c165 0 235 88 235 295zM382 100c-21 -31 -54 -47 -99 -47
c-96 0 -131 61 -131 226c0 166 37 231 130 231c105 0 119 -57 136 -174c0 -154 -7 -197 -36 -236z" />
    <glyph glyph-name="oacute" unicode="&#xf3;" horiz-adv-x="569" 
d="M419 756h-103l-97 -135h57zM518 281l-4 97c-11 109 -47 176 -101 183l-85 13c-16 2 -44 3 -83 3c-67 0 -146 -58 -171 -129l-16 -56v-22c0 -3 -3 -14 -4 -18c0 -261 34 -366 229 -366c165 0 235 88 235 295zM382 100c-21 -31 -54 -47 -99 -47c-96 0 -131 61 -131 226
c0 166 37 231 130 231c105 0 119 -57 136 -174c0 -154 -7 -197 -36 -236z" />
    <glyph glyph-name="ocircumflex" unicode="&#xf4;" horiz-adv-x="569" 
d="M435 623l-99 133h-96l-100 -133h58l90 80l90 -80h57zM518 281l-4 97c-11 109 -47 176 -101 183l-85 13c-16 2 -44 3 -83 3c-67 0 -146 -58 -171 -129l-16 -56v-22c0 -3 -3 -14 -4 -18c0 -261 34 -366 229 -366c165 0 235 88 235 295zM382 100c-21 -31 -54 -47 -99 -47
c-96 0 -131 61 -131 226c0 166 37 231 130 231c105 0 119 -57 136 -174c0 -154 -7 -197 -36 -236z" />
    <glyph glyph-name="otilde" unicode="&#xf5;" horiz-adv-x="569" 
d="M428 740h-41c-6 -23 -17 -32 -40 -32c-13 0 -30 3 -51 10c-22 6 -44 9 -65 9c-37 0 -69 -36 -86 -94h44c12 23 22 32 40 32c10 0 23 -2 40 -7c38 -10 38 -10 78 -14c40 0 81 46 81 96zM518 281l-4 97c-11 109 -47 176 -101 183l-85 13c-16 2 -44 3 -83 3
c-67 0 -146 -58 -171 -129l-16 -56v-22c0 -3 -3 -14 -4 -18c0 -261 34 -366 229 -366c165 0 235 88 235 295zM382 100c-21 -31 -54 -47 -99 -47c-96 0 -131 61 -131 226c0 166 37 231 130 231c105 0 119 -57 136 -174c0 -154 -7 -197 -36 -236z" />
    <glyph glyph-name="odieresis" unicode="&#xf6;" horiz-adv-x="569" 
d="M426 641v82h-87v-82h87zM237 641v82h-87v-82h87zM518 281l-4 97c-11 109 -47 176 -101 183l-85 13c-16 2 -44 3 -83 3c-67 0 -146 -58 -171 -129l-16 -56v-22c0 -3 -3 -14 -4 -18c0 -261 34 -366 229 -366c165 0 235 88 235 295zM382 100c-21 -31 -54 -47 -99 -47
c-96 0 -131 61 -131 226c0 166 37 231 130 231c105 0 119 -57 136 -174c0 -154 -7 -197 -36 -236z" />
    <glyph glyph-name="divide" unicode="&#xf7;" horiz-adv-x="982" 
d="M536 392v82h-91v-82h91zM837 265v67h-692v-67h692zM536 119v82h-89v-82h89z" />
    <glyph glyph-name="oslash" unicode="&#xf8;" horiz-adv-x="569" 
d="M546 574l-43 26l-61 -75c-54 43 -97 54 -179 54c-130 0 -213 -110 -213 -280c0 -43 3 -83 9 -118l13 -51l18 -48l-73 -94l46 -27l60 78c46 -36 92 -54 138 -54c92 0 143 13 174 44c55 52 84 133 84 237c0 91 -15 166 -45 218zM387 457l-228 -289l-5 30
c-18 219 17 312 114 312c62 0 96 -15 119 -53zM418 266c-6 -148 -43 -214 -123 -214c-56 0 -98 20 -118 57l231 289c7 -44 10 -88 10 -132z" />
    <glyph glyph-name="ugrave" unicode="&#xf9;" horiz-adv-x="556" 
d="M343 623l-96 133h-104l143 -133h57zM479 0v563h-94c0 -284 -12 -439 -37 -466c-27 -29 -56 -44 -87 -44c-58 0 -95 30 -95 76v434h-96c0 -337 12 -517 36 -541s59 -36 105 -36c87 0 149 26 181 86v-72h87z" />
    <glyph glyph-name="uacute" unicode="&#xfa;" horiz-adv-x="556" 
d="M406 756h-104l-97 -135h58zM479 0v563h-94c0 -284 -12 -439 -37 -466c-27 -29 -56 -44 -87 -44c-58 0 -95 30 -95 76v434h-96c0 -337 12 -517 36 -541s59 -36 105 -36c87 0 149 26 181 86v-72h87z" />
    <glyph glyph-name="ucircumflex" unicode="&#xfb;" horiz-adv-x="556" 
d="M421 623l-99 133h-97l-99 -133h58l90 80l91 -80h56zM479 0v563h-94c0 -284 -12 -439 -37 -466c-27 -29 -56 -44 -87 -44c-58 0 -95 30 -95 76v434h-96c0 -337 12 -517 36 -541s59 -36 105 -36c87 0 149 26 181 86v-72h87z" />
    <glyph glyph-name="udieresis" unicode="&#xfc;" horiz-adv-x="556" 
d="M413 641v82h-89v-82h89zM223 641v82h-87v-82h87zM479 0v563h-94c0 -284 -12 -439 -37 -466c-27 -29 -56 -44 -87 -44c-58 0 -95 30 -95 76v434h-96c0 -337 12 -517 36 -541s59 -36 105 -36c87 0 149 26 181 86v-72h87z" />
    <glyph glyph-name="yacute" unicode="&#xfd;" horiz-adv-x="523" 
d="M394 756h-104l-96 -135h57zM505 563h-97l-145 -454l-143 454h-99l194 -567c-20 -43 -32 -68 -37 -75c-21 -27 -40 -40 -58 -40c-19 0 -35 1 -46 3l-30 9v-73l34 -6c129 -5 165 13 222 161z" />
    <glyph glyph-name="thorn" unicode="&#xfe;" horiz-adv-x="563" 
d="M512 275c0 125 -21 200 -72 249c-34 34 -73 51 -117 51c-84 0 -137 -27 -157 -69v246h-95v-941h95v250c33 -50 83 -72 166 -72c113 0 180 102 180 286zM411 268c-7 -157 -38 -211 -123 -211c-107 0 -134 87 -122 315c11 89 51 134 118 134c92 0 127 -64 127 -238z" />
    <glyph glyph-name="ydieresis" unicode="&#xff;" horiz-adv-x="523" 
d="M401 641v82h-87v-82h87zM212 641v82h-88v-82h88zM505 563h-97l-145 -454l-143 454h-99l194 -567c-20 -43 -32 -68 -37 -75c-21 -27 -40 -40 -58 -40c-19 0 -35 1 -46 3l-30 9v-73l34 -6c129 -5 165 13 222 161z" />
  </font>
</defs>
</svg>
